Торренты   
 
 


Паранорман, или Как приручить зомби 3D/ ParaNormaN 3D (Крис Батлер / Chris Butler, Сэм Фелл / Sam Fell) [2012, 1080p, BDRip, Anamorph SideBySide]

Рейтинг 3D:
10 голосов
5.1
Рейтинг фильма:
8 голосов
6.1
 
Вы должны быть авторизированы,
чтобы ставить оценки


Паранорман, или Как приручить зомби 3Д
ParaNormaN 3D
- Год выпуска: 2012
Страна: США
Студия: Laika Entertainment
Жанр: мультфильм, ужасы, фэнтези, комедия, приключения
Продолжительность: 01:32:14
Перевод: профессиональный (дублированный)
Русские субтитры: есть
Режиссер: Крис Батлер / Chris Butler, Сэм Фелл / Sam Fell
В ролях (дублировали): Александр Комлев, Денис Беспалый, Алексей Борзунов, Вероника Саркисова, Алексей Колган--Описание:
Норман, Паранорман. Единственная надежда полусонного городка в борьбе с полчищами нечисти. Его оружие — супер-мега-дар: умение общаться с призраками. Впрочем, мертвецы — не главная опасность, куда хуже — глупые взрослые с дробовиками наперевес ...--Проверено на встроенном плейере ТВ Samsung UE-D7000 --Качество: BDrip
Контейнер: MKV
Формат 3D: Half SideBySide / Горизонтальная анаморфная стереопара
Порядок ракурсов: левый ракурс первый
Видео кодек: x264
Видео: AVC / 1920x1080p / 23.98fps / 10000 kbps
Аудио 1: Русский / AC3 / 48000Hz / 5.1 ch / 384 Kbps
Аудио 2: Английский / AC3 / 48000Hz / 5.1 ch / 640 Kbps
Субтитры: Русские Форсированные

MediaInfo

Общее
Полное имя : ParaNormaN.3D(2012)BD3DRip.Half-SBS.1080p.x264.RusDub.Eng.AC3.mkv
Формат : Matroska
Версия формата : Version 2
Размер файла : 7,07 Гбайт
Продолжительность : 1 ч. 32 м.
Общий поток : 11,0 Мбит/сек
Название фильма : ParaNorman 3D (2012)
Дата кодирования : UTC 2012-12-05 18:01:42
Программа кодирования : mkvmerge v3.4.0 ('Rapunzel') сборка от May 15 2010 09:38:20
Библиотека кодирования : libebml v0.8.0 + libmatroska v0.9.0
Видео
Идентификатор : 1
Формат : AVC
Формат/Информация : Advanced Video Codec
Профиль формата : High@L4.1
Параметр CABAC формата : Да
Параметр ReFrames формата : 4 кадра
Идентификатор кодека : V_MPEG4/ISO/AVC
Продолжительность : 1 ч. 32 м.
Битрейт : 10000 Кбит/сек
Ширина : 1920 пикселей
Высота : 1080 пикселей
Соотношение сторон : 16:9
Режим частоты кадров : Постоянный
Частота кадров : 23,976 кадра/сек
Цветовое пространство : YUV
Субдискретизация насыщенности : 4:2:0
Битовая глубина : 8 бит
Тип развёртки : Прогрессивная
Бит/(Пиксели*Кадры) : 0.201
Размер потока : 6,27 Гбайт (89%)
Заголовок : ParaNorman 3D (2012)
Библиотека кодирования : x264 core 119 r2106 07efeb4
Настройки программы : cabac=1 / ref=3 / deblock=1:0:0 / analyse=0x3:0x113 / me=hex / subme=7 / psy=1 / psy_rd=1.00:0.00 / mixed_ref=1 / me_range=16 / chroma_me=1 / trellis=1 / 8x8dct=1 / cqm=0 / deadzone=21,11 / fast_pskip=1 / chroma_qp_offset=-2 / threads=12 / sliced_threads=0 / nr=0 / decimate=1 / interlaced=0 / bluray_compat=0 / constrained_intra=0 / bframes=3 / b_pyramid=2 / b_adapt=1 / b_bias=0 / direct=1 / weightb=1 / open_gop=0 / weightp=2 / keyint=250 / keyint_min=23 / scenecut=40 / intra_refresh=0 / rc_lookahead=40 / rc=abr / mbtree=1 / bitrate=10000 / ratetol=1.0 / qcomp=0.60 / qpmin=0 / qpmax=69 / qpstep=4 / ip_ratio=1.40 / aq=1:1.00
Язык : English
Default : Нет
Forced : Нет
Аудио #1
Идентификатор : 2
Формат : AC-3
Формат/Информация : Audio Coding 3
Расширение режима : CM (complete main)
Параметр Endianness формата : Big
Идентификатор кодека : A_AC3
Продолжительность : 1 ч. 32 м.
Вид битрейта : Постоянный
Битрейт : 384 Кбит/сек
Каналы : 6 каналов
Расположение каналов : Front: L C R, Side: L R, LFE
Частота : 48,0 КГц
Битовая глубина : 16 бит
Метод сжатия : С потерями
Задержка видео : 14 мс.
Размер потока : 253 Мбайт (4%)
Заголовок : Дубляж
Язык : Russian
Default : Да
Forced : Нет
Аудио #2
Идентификатор : 3
Формат : AC-3
Формат/Информация : Audio Coding 3
Расширение режима : CM (complete main)
Параметр Endianness формата : Big
Идентификатор кодека : A_AC3
Продолжительность : 1 ч. 32 м.
Вид битрейта : Постоянный
Битрейт : 640 Кбит/сек
Каналы : 6 каналов
Расположение каналов : Front: L C R, Side: L R, LFE
Частота : 48,0 КГц
Битовая глубина : 16 бит
Метод сжатия : С потерями
Размер потока : 422 Мбайт (6%)
Заголовок : Original
Язык : English
Default : Нет
Forced : Нет
ВНИМАНИЕ!
06.12.2012 - релиз обновлён - звук заменен на лицензионный дубляж. Желающие, скачайте заново торрент-файл
Благодарности релизеру (20)

Торрент:

Статус:

Размер:

Зарегистрирован   [ 2012-12-06 00:36 ]

поглощено

7.07 GB

 
 Мнение о фильме (1)





3d в этом мульте вааащеее отстооой ееллеее еллеееееее моя оценка -1