Торренты   
 
 


Паранорман, или Как приручить зомби / ParaNormaN (Крис Батлер/Сэм Фелл) [2012 г., BDRip, Full OverUnder]

Рейтинг 3D:
38 голосов
6.7
Рейтинг фильма:
38 голосов
7.3
 
Вы должны быть авторизированы,
чтобы ставить оценки


Паранорман, или Как приручить зомби / ParaNormaN
Год выпуска: 2012
Страна: США
Жанр: мультфильм, ужасы, фэнтези, комедия, приключения
Продолжительность: 01:32:14
Перевод: Профессиональный (полное дублирование)
Режиссер: Крис Батлер/Сэм Фелл
В ролях: Александр Комлев, Денис Беспалый, Алексей Борзунов, Вероника Саркисова, Алексей Колган
Описание: Норман, Паранорман. Единственная надежда полусонного городка в борьбе с полчищами нечисти. Его оружие — супер-мега-дар: умение общаться с призраками. Впрочем, мертвецы — не главная опасность, куда хуже — глупые взрослые с дробовиками наперевес ...
Релиз группы:
Формат 3D: OverUnder
Видео: AVC, High@L5.0, 1920x1600, 23.976 fps, 9821 Кбит/сек
Аудио: Rus, AC-3, 6 каналов, 384 Кбит/сек, 48,0 КГц
Аудио: Eng, DTS, 6 каналов, 1510 Кбит/сек, 48,0 КГц

Скриншоты




MediaInfo

Общее
Уникальный идентификатор : 213583107929565386635219272567460948214 (0xA0AE9C3DC79D51A8BDB4F9AFE3CB68F6)
Полное имя : E:\STEREO\ParaNormaN_1080p_Rip by Dag13.mkv
Формат : Matroska
Версия формата : Version 2
Размер файла : 7,70 Гбайт
Продолжительность : 1 ч. 32 м.
Общий поток : 11,9 Мбит/сек
Название фильма : Paranorman (2012) (rip by S.T.A.L.K.E.R.2)
Дата кодирования : UTC 2012-12-06 09:15:03
Программа кодирования : mkvmerge v3.4.0 ('Rapunzel') сборка от May 15 2010 09:38:20
Библиотека кодирования : libebml v0.8.0 + libmatroska v0.9.0
Видео
Идентификатор : 1
Формат : AVC
Формат/Информация : Advanced Video Codec
Профиль формата : High@L5.0
Параметр CABAC формата : Да
Параметр ReFrames формата : 4 кадра
Идентификатор кодека : V_MPEG4/ISO/AVC
Продолжительность : 1 ч. 32 м.
Битрейт : 9817 Кбит/сек
Ширина : 1920 пикселей
Высота : 1600 пикселей
Соотношение сторон : 1,200
Режим частоты кадров : Постоянный
Частота кадров : 23,976 кадра/сек
Цветовое пространство : YUV
Субдискретизация насыщенности : 4:2:0
Битовая глубина : 8 бит
Тип развёртки : Прогрессивная
Бит/(Пиксели*Кадры) : 0.133
Размер потока : 6,33 Гбайт (82%)
Заголовок : Rip by Dag13
Библиотека кодирования : x264 core 120 r2145 748fe16
Настройки программы : cabac=1 / ref=4 / deblock=1:-3:-3 / analyse=0x3:0x113 / me=umh / subme=9 / psy=1 / psy_rd=1.00:0.00 / mixed_ref=1 / me_range=16 / chroma_me=1 / trellis=1 / 8x8dct=1 / cqm=0 / deadzone=21,11 / fast_pskip=1 / chroma_qp_offset=-2 / threads=9 / sliced_threads=0 / nr=0 / decimate=1 / interlaced=0 / bluray_compat=0 / constrained_intra=0 / bframes=6 / b_pyramid=2 / b_adapt=2 / b_bias=0 / direct=3 / weightb=1 / open_gop=0 / weightp=2 / keyint=250 / keyint_min=23 / scenecut=40 / intra_refresh=0 / rc_lookahead=60 / rc=crf / mbtree=1 / crf=17.0 / qcomp=0.60 / qpmin=1 / qpmax=69 / qpstep=4 / ip_ratio=1.40 / aq=1:1.00
Язык : English
Default : Нет
Forced : Нет
Аудио #1
Идентификатор : 2
Формат : AC-3
Формат/Информация : Audio Coding 3
Расширение режима : CM (complete main)
Параметр Endianness формата : Big
Идентификатор кодека : A_AC3
Продолжительность : 1 ч. 32 м.
Вид битрейта : Постоянный
Битрейт : 384 Кбит/сек
Каналы : 6 каналов
Расположение каналов : Front: L C R, Side: L R, LFE
Частота : 48,0 КГц
Битовая глубина : 16 бит
Метод сжатия : С потерями
Размер потока : 253 Мбайт (3%)
Язык : Russian
Default : Да
Forced : Нет
Аудио #2
Идентификатор : 3
Формат : DTS
Формат/Информация : Digital Theater Systems
Идентификатор кодека : A_DTS
Продолжительность : 1 ч. 32 м.
Вид битрейта : Постоянный
Битрейт : 1510 Кбит/сек
Каналы : 6 каналов
Расположение каналов : Front: L C R, Side: L R, LFE
Частота : 48,0 КГц
Битовая глубина : 24 бит
Метод сжатия : С потерями
Размер потока : 996 Мбайт (13%)
Язык : English
Default : Нет
Forced : Нет
На встроенных ТВ-плейерах показывать НЕ будет!!!Внимание: релиз обновлен, русская дорожка заменена на лицензию.
Остальные раздачи этого фильма (4)
Благодарности релизеру (7)

Торрент:

Статус:

Размер:

Зарегистрирован   [ 2012-12-06 13:37 ]

проверено

7.7 GB

 
 Мнение о фильме (5)





Достаточно смотрибельно. Не ясно, откуда такой большой рейтинг у проходного мульта… Всё настолько шаблонно и стандартно, что сводит зубы и нападает зевота. Но благодаря сочной 3D картинке мульт выезжает чуть выше плинтуса… Оценка: 3
 

это точно сказанно
 

Не сказать,чтобы мульт гениален,но вполне смотрибелен.Согласен с Lodoeb.
 

Нормальный мульт.,детям понравится
 

Ребят, а по-моему полнейшая бредятина, давно такого качественного шлака не наблюдал. еле досмотрел до конца, не знаю с чем даже можно сравнить.....