Торренты   
 
 

 

407: Призрачный рейс в 3Д / 407 Dark Flight 3D (Исара Нади / Isara Nadee) [2012, ужасы, триллер, BDrip 1080p,AVC x264,AC3 russ(MVO)[den904, DeadSno ] Anamorph OverUnder]

Рейтинг 3D:
21 голосов
7.1
Рейтинг фильма:
24 голосов
4.0
 
Вы должны быть авторизированы,
чтобы ставить оценки


Раздача закрыта правообладателем.407: Призрачный рейс 3Д/ 407 Dark Flight 3D Год выпуска: 2012
Страна: Таиланд
Жанр: ужасы, триллер
Продолжительность: 01:44:37
Перевод: Любительский (двухголосый закадровый)den904, DeadSno
Русские субтитры: нет
Режиссер: Исара Нади / Isara Nadee-В ролях:Марша Ватанапанич, Питер Найт, Парамей Ноиам, Намо Тонкумнерд,Джонатан Самсон
Кристен Эвелин Росси,Сисангиан Сихалат,Патчари Тубтонг.-Описание:Странную статистику выдает компьютер - в последнее время во время авиаперелетов в одном и том же месте наблюдается повышенное число аварий, причем это происходит в разное время и с разными авиакомпаниями. И вот в одном из рейсов летит стюардесса Нью. У нее когда-то давно во время полета были проблемы - она видела что-то непонятное и необъяснимое, но врачи её уверили, что именно перепад давления стал причиной появления галлюцинаций и разрешили снова работать стюардессой. Но и в новом полете снова происходит что-то необъяснимое и сверхъестественное. И, как оказывается, это видит не только одна Нью ...

Техн. детали съёмки

Премьера: 22 марта 2012
Бюджет: $7 000 000
Кассовые сборы: ?
Релиз на DVD и Blu-Ray: ?

. .
Проверено на встроенном плейере ТВ LG LW 650S
--Качество: BDrip
Контейнер: MKV
Формат 3D: Anamorph OverUnder / Вертикальная анаморфная стереопара
Порядок ракурсов: левый ракурс первый
Видео кодек: x264
Аудио кодек: AC3-Видео: AVC / 23,976 fps / 1920х1080p / 6751Kbps
Аудио: - Русский / AC3 / 48 KHz / 5.1 ch / 448 Kbps (MVO)
Субтитры вшитые softsub (SRT):Английские full

MediaInfo

Общее
Уникальный идентификатор : 199702850862051653568473677979669245821 (0x963D5EBB4CD1D151A1195701EB1C2F7D)
Полное имя : E:\3Д фильмы\407 Dark Flight (3D)2012.halfOU.1080p.AC3-rus (MVO)(m@rik05).mkv
Формат : Matroska
Версия формата : Version 2
Размер файла : 5,37 Гбайт
Продолжительность : 1 ч. 44 м.
Общий поток : 7345 Кбит/сек
Название фильма : 407 Dark Flight (3D)2012. 3D-RuGroup
Дата кодирования : UTC 2012-11-24 14:08:23
Программа кодирования : mkvmerge v5.8.0 ('No Sleep / Pillow') built on Sep 2 2012 15:37:04
Библиотека кодирования : libebml v1.2.3 + libmatroska v1.3.0
Видео
Идентификатор : 1
Формат : AVC
Формат/Информация : Advanced Video Codec
Профиль формата : High@L4.1
Параметр CABAC формата : Да
Параметр ReFrames формата : 4 кадра
Идентификатор кодека : V_MPEG4/ISO/AVC
Продолжительность : 1 ч. 44 м.
Битрейт : 6751 Кбит/сек
Ширина : 1920 пикселей
Высота : 1080 пикселей
Соотношение сторон : 16:9
Режим частоты кадров : Постоянный
Частота кадров : 23,976 кадра/сек
Цветовое пространство : YUV
Субдискретизация насыщенности : 4:2:0
Битовая глубина : 8 бит
Тип развёртки : Прогрессивная
Бит/(Пиксели*Кадры) : 0.136
Размер потока : 4,93 Гбайт (92%)
Заголовок : rip by m@rik
Библиотека кодирования : x264 core 116 r2074 2641b9e
Настройки программы : cabac=1 / ref=4 / deblock=1:-3:-3 / analyse=0x3:0x133 / me=umh / subme=9 / psy=1 / psy_rd=1.00:0.05 / mixed_ref=1 / me_range=16 / chroma_me=1 / trellis=2 / 8x8dct=1 / cqm=0 / deadzone=21,11 / fast_pskip=1 / chroma_qp_offset=-3 / threads=12 / sliced_threads=0 / nr=0 / decimate=1 / interlaced=0 / bluray_compat=0 / constrained_intra=0 / bframes=6 / b_pyramid=2 / b_adapt=2 / b_bias=0 / direct=3 / weightb=1 / open_gop=0 / weightp=2 / keyint=250 / keyint_min=23 / scenecut=40 / intra_refresh=0 / rc_lookahead=60 / rc=crf / mbtree=1 / crf=18.0 / qcomp=0.60 / qpmin=10 / qpmax=69 / qpstep=4 / vbv_maxrate=40000 / vbv_bufsize=40000 / crf_max=0.0 / nal_hrd=none / frame-packing=4 / ip_ratio=1.40 / aq=1:0.70
Язык : tai
Default : Да
Forced : Нет
Аудио
Идентификатор : 2
Формат : AC-3
Формат/Информация : Audio Coding 3
Расширение режима : CM (complete main)
Параметр Endianness формата : Big
Идентификатор кодека : A_AC3
Продолжительность : 1 ч. 44 м.
Вид битрейта : Постоянный
Битрейт : 448 Кбит/сек
Каналы : 6 каналов
Расположение каналов : Front: L C R, Side: L R, LFE
Частота : 48,0 КГц
Битовая глубина : 16 бит
Метод сжатия : С потерями
Размер потока : 335 Мбайт (6%)
Заголовок : AC3 5.1 @ 384 kbps (MVO)любительский (двухголосый)
Язык : Russian
Default : Да
Forced : Нет
Текст
Идентификатор : 3
Формат : UTF-8
Идентификатор кодека : S_TEXT/UTF8
Идентификатор кодека/Информация : UTF-8 Plain Text
Язык : English
Default : Нет
Forced : Нет
Меню
00:00:00.000 : en:00:00:00.000
00:07:45.465 : en:00:07:45.465
00:18:04.500 : en:00:18:04.500
00:27:00.911 : en:00:27:00.911
00:35:01.641 : en:00:35:01.641
00:41:52.468 : en:00:41:52.468
00:50:56.887 : en:00:50:56.887
00:59:47.959 : en:00:59:47.959
01:08:11.462 : en:01:08:11.462
01:20:10.681 : en:01:20:10.681
01:29:26.111 : en:01:29:26.111
01:37:17.957 : en:01:37:17.957

Скриншоты


Благодарности релизеру (34)

Торрент:

Статус:

Размер:

Зарегистрирован   [ 2012-11-24 22:50 ]

© закрыто правообладателем

5.37 GB

 
 Мнение о фильме (12)





Не смог досмотреть, 3D неплохо а игра актеров НИКАКАЯ, вроде надо бояться, но зевота мешает.
В любом случае спасибо за работу релизеру.
 

Полное дерьмо! Выключил на 15 й минуте
 

Хрень полнейшая. А 3D не плохое.
 

не вздумайте качать это гавно! половину посмотрелл и уснул(половину которую видел, через силу смотрел) за релиз благодарен
 

да нормальный фильм, вот ещё бы звук нормальный !!!
 

3d настроено странно - рампа то на актерах, то перед ними, из-за чего объем в отдельных кадрах отсутствует, картинка просто утаптывается вглубь.
Жалко, что не дотянули сценарий, точнее вообще как-будто на ходу он сляпан. Актеры понравились и атмосфера. Могло бы выйти лучше гораздо. Похоже просто на черновой монтаж какой-то.
За раздачу спасибо!
 

я знал ,что у косоглазых строение среднего уха другое ,но теперь убедился ,что и строение глаз тоже другое! при просмотре можно окосеть, невздумайте смотреть,если глаза дороги.
по поводу сюжета ничего нескажу, несмог смотреть.
 

Фильм не стоит просмотра, на протяжении всей "картины" возникало чувство, что скоро будет клип "psy- gangnam style" причём каждые 5-10 минут.
 

Кто поставил такую оценку ??????? 1 не больше!!!!!
 

Полностью согласен с вами посмотрел весь фильм на 2 мин до конца не хватило)) фильм отстой полный особенно перевод с кортавой бабой! даже оценку не поставлю просто скажу "смотрено"
 

Поддержу (Pioneer).Может для тех кто снимал фильм шедевр? но 3д норм)))
 

Даже на скриншотах видно как девушки нарисованы комп. графикой. Сюжет на нуле и игра актеров...