Торренты   
 
 

 

Капитан Америка: Первый Мститель / Captain America: The First Avenger (Джо Джонстон) [2011 г.,BDRip, Crop Anamorph OverUnder]

Рейтинг 3D:
49 голосов
7.0
Рейтинг фильма:
49 голосов
7.6
 
Вы должны быть авторизированы,
чтобы ставить оценки


Капитан Америка: Первый Мститель / Captain America: The First Avenger
Год выпуска: 2011
Страна: США
Жанр: Фантастика, Боевик, Приключения
Продолжительность: 02:04:10
Перевод: Профессиональный (полное дублирование)
Режиссер: Джо Джонстон
В ролях: Крис Эванс, Томми Ли Джонс, Хьюго Уивинг, Доминик Купер, Нил МакДонаф, Дерек Люк, Стенли Туччи, Хейли Этвелл, Себастиан Стэн, Ричард Армитэдж, Сэмюэл Л. Джексон, Тоби Джонс
Описание: Стив Роджерс добровольно соглашается принять участие в эксперименте, который превратит его в супер солдата, известного как Первый мститель. Роджерс вступает в вооруженные силы США вместе с Баки Барнсом и Пегги Картер, чтобы бороться с враждебной организацией ГИДРА, которой управляет безжалостный Красный Череп.
Внимание: Справа и слева у видеоряда обрезано по 236р, что дает возможность просмотра на полный экран (без черных полос) на телевизорах с соотношением сторон 16:9 без изменения пропорций.
Более подробная информация
Релиз группы:
Формат 3D: OverUnder BDRip, Crop Anamorph
Видео: AVC, High@L4.0, 1920x1080, 23.976 fps, 16,9 Мбит/сек
Аудио: Rus, AC-3, 6 каналов, 640 Кбит/сек, 48,0 КГц
Аудио: Eng, AC-3, 6 каналов, 640 Кбит/сек, 48,0 КГц

Скриншоты




MediaInfo

Общее
Уникальный идентификатор : 184615296864721462850550662787161412055 (0x8AE39CE33CD359668CE9AAAE2B9051D7)
Полное имя : E:\STEREO CROP\Captain America_The First Avenger_(CROP)_Rip by Dag13.mkv
Формат : Matroska
Версия формата : Version 2
Размер файла : 16,1 Гбайт
Продолжительность : 2 ч. 4 м.
Общий поток : 18,6 Мбит/сек
Дата кодирования : UTC 2012-11-26 09:51:06
Программа кодирования : mkvmerge v3.4.0 ('Rapunzel') сборка от May 15 2010 09:38:20
Библиотека кодирования : libebml v0.8.0 + libmatroska v0.9.0
Видео
Идентификатор : 1
Формат : AVC
Формат/Информация : Advanced Video Codec
Профиль формата : High@L4.0
Параметр CABAC формата : Да
Параметр ReFrames формата : 4 кадра
Идентификатор кодека : V_MPEG4/ISO/AVC
Продолжительность : 2 ч. 4 м.
Битрейт : 16,9 Мбит/сек
Ширина : 1920 пикселей
Высота : 1080 пикселей
Соотношение сторон : 16:9
Режим частоты кадров : Постоянный
Частота кадров : 23,976 кадра/сек
Цветовое пространство : YUV
Субдискретизация насыщенности : 4:2:0
Битовая глубина : 8 бит
Тип развёртки : Прогрессивная
Бит/(Пиксели*Кадры) : 0.341
Размер потока : 14,7 Гбайт (91%)
Заголовок : Rip by Dag13
Библиотека кодирования : x264 core 120 r2145 748fe16
Настройки программы : cabac=1 / ref=4 / deblock=1:-3:-3 / analyse=0x3:0x113 / me=umh / subme=9 / psy=1 / psy_rd=1.00:0.00 / mixed_ref=1 / me_range=16 / chroma_me=1 / trellis=1 / 8x8dct=1 / cqm=0 / deadzone=21,11 / fast_pskip=1 / chroma_qp_offset=-2 / threads=9 / sliced_threads=0 / nr=0 / decimate=1 / interlaced=0 / bluray_compat=0 / constrained_intra=0 / bframes=6 / b_pyramid=2 / b_adapt=2 / b_bias=0 / direct=3 / weightb=1 / open_gop=0 / weightp=2 / keyint=250 / keyint_min=23 / scenecut=40 / intra_refresh=0 / rc_lookahead=60 / rc=crf / mbtree=1 / crf=17.0 / qcomp=0.60 / qpmin=1 / qpmax=69 / qpstep=4 / ip_ratio=1.40 / aq=1:1.00
Язык : English
Default : Нет
Forced : Нет
Аудио #1
Идентификатор : 2
Формат : AC-3
Формат/Информация : Audio Coding 3
Расширение режима : CM (complete main)
Параметр Endianness формата : Big
Идентификатор кодека : A_AC3
Продолжительность : 2 ч. 4 м.
Вид битрейта : Постоянный
Битрейт : 640 Кбит/сек
Каналы : 6 каналов
Расположение каналов : Front: L C R, Side: L R, LFE
Частота : 48,0 КГц
Битовая глубина : 16 бит
Метод сжатия : С потерями
Размер потока : 569 Мбайт (3%)
Язык : Russian
Default : Да
Forced : Нет
Аудио #2
Идентификатор : 3
Формат : AC-3
Формат/Информация : Audio Coding 3
Расширение режима : CM (complete main)
Параметр Endianness формата : Big
Идентификатор кодека : A_AC3
Продолжительность : 2 ч. 4 м.
Вид битрейта : Постоянный
Битрейт : 640 Кбит/сек
Каналы : 6 каналов
Расположение каналов : Front: L C R, Side: L R, LFE
Частота : 48,0 КГц
Битовая глубина : 16 бит
Метод сжатия : С потерями
Размер потока : 569 Мбайт (3%)
Язык : English
Default : Нет
Forced : Нет
Остальные раздачи этого фильма (6)
Благодарности релизеру (66)

Торрент:

Статус:

Размер:

Зарегистрирован   [ 2012-11-26 18:37 ]

проверено

16.12 GB