Торренты   
 
 

 

Шаг вперед 4 / Step Up Revolution [2012, BDrip, half1080p, Anamorph SideBySide]

Рейтинг 3D:
56 голосов
8.0
Рейтинг фильма:
51 голосов
7.0
 
Вы должны быть авторизированы,
чтобы ставить оценки


Шаг вперед 4 / Step Up Revolution
Год выпуска: 2012
Страна: США (Offspring Entertainment, Summit Entertainment)
Жанр: драма, мелодрама, музыка
Продолжительность: 01:38:39
Перевод: Профессиональный (полное дублирование)
Режиссер: Скотт Спир
В ролях: Райан Гузман, Кэтрин МакКормик, Миша Гэбриел Хэмилтон, Клеопатра Коулмэн, Стивен Стэннерт, Томми Дьюи, Питер Галлахер, Майкл «Ксено» Лэнджбек, Клаудио Пинто, Николь Дабо
Описание: Эмили, дочь влиятельного бизнесмена, приезжает в Майами с намерением стать профессиональной танцовщицей, но влюбляется в Шона — юношу, чья танцевальная труппа устраивает музыкальные флэшмобы. Команда, называющаяся MOB, участвует в конкурсе с внушительным денежным призом, а тем временем отец Эмили намеревается перестроить родной район ребят и переселить тысячи людей. Эмили присоединяется к танцорам и организует протестные мобы, рискуя не осуществить мечту, но сражаясь за нечто более важное.
Качество: BDrip by Alexman©
Формат 3D: Anamorph SideBySide / Горизонтальная анаморфная стереопара
Порядок ракурсов: левый ракурс первый
Видео: MPEG4 AVC, 9 811 Kbps, 1920x1080, 23.976 кадр/с
Аудио №1: Русский дублированный перевод / AC3 / 48 KHz / 5.1 ch / 640 Kbps
Аудио №2: Английский оригинальный / AC3 / 48 KHz / 5.1 ch / 640 Kbps
Аудио №3: Украинский дублированный перевод / AC3 / 48 KHz / 5.1 ch / 640 Kbps
Субтитры №1: Английские полные
Субтитры №2: Русские полные
Дополнительная информация: rip с BD US, cоотношение сторон оригинальное 2.4 : 1 в отличие от "обрезанного" и "апскейленного" BD RUS. Звук в релизе отменный, в отличие от гуляющего по интернету AC3 448 кбит с неимоверно тихими диалогами и музыкой "из бочки".
Сэмпл №1 (диалоги)
Сэмпл №2 (музыка+диалоги)

MediaInfo

General
Unique ID : 244256978082488337382010851597493643559 (0xB7C22ECD63202876871835ABFDB2A927)
Complete name : Step Up Revolution 3D [Шаг вперед 4 3D] (2012) DUB hSbS 1080p by Alexman©.mkv
Format : Matroska
Format version : Version 2
File size : 8.25 GiB
Duration : 1h 38mn
Overall bit rate : 12.0 Mbps
Encoded date : UTC 2012-11-30 05:02:40
Writing application : mkvmerge v5.8.0 ('No Sleep / Pillow') built on Sep 2 2012 15:37:04
Writing library : libebml v1.2.3 + libmatroska v1.3.0
Video
ID : 1
Format : AVC
Format/Info : Advanced Video Codec
Format profile : High@L4.1
Format settings, CABAC : Yes
Format settings, ReFrames : 4 frames
Codec ID : V_MPEG4/ISO/AVC
Duration : 1h 38mn
Bit rate : 9 811 Kbps
Width : 1 920 pixels
Height : 1 080 pixels
Display aspect ratio : 16:9
Frame rate : 23.976 fps
Color space : YUV
Chroma subsampling : 4:2:0
Bit depth : 8 bits
Scan type : Progressive
Bits/(Pixel*Frame) : 0.197
Stream size : 6.76 GiB (82%)
Writing library : x264 core 128 r2216 198a7ea
Encoding settings : cabac=1 / ref=4 / deblock=1:-3:-3 / analyse=0x3:0x113 / me=umh / subme=9 / psy=1 / psy_rd=1.00:0.15 / mixed_ref=1 / me_range=32 / chroma_me=1 / trellis=2 / 8x8dct=1 / cqm=0 / deadzone=21,11 / fast_pskip=1 / chroma_qp_offset=-3 / threads=6 / lookahead_threads=1 / sliced_threads=0 / nr=0 / decimate=1 / interlaced=0 / bluray_compat=0 / constrained_intra=0 / bframes=4 / b_pyramid=2 / b_adapt=2 / b_bias=0 / direct=3 / weightb=1 / open_gop=0 / weightp=2 / keyint=250 / keyint_min=23 / scenecut=40 / intra_refresh=0 / rc_lookahead=60 / rc=crf / mbtree=1 / crf=17.0 / qcomp=0.60 / qpmin=0 / qpmax=69 / qpstep=4 / vbv_maxrate=40000 / vbv_bufsize=40000 / crf_max=0.0 / nal_hrd=none / ip_ratio=1.40 / aq=1:0.70
Language : English
Default : Yes
Forced : No
Audio #1
ID : 2
Format : AC-3
Format/Info : Audio Coding 3
Mode extension : CM (complete main)
Codec ID : A_AC3
Duration : 1h 38mn
Bit rate mode : Constant
Bit rate : 640 Kbps
Channel(s) : 6 channels
Channel positions : Front: L C R, Side: L R, LFE
Sampling rate : 48.0 KHz
Bit depth : 16 bits
Compression mode : Lossy
Stream size : 452 MiB (5%)
Title : Русский дублированный
Language : Russian
Default : Yes
Forced : Yes
Audio #2
ID : 3
Format : AC-3
Format/Info : Audio Coding 3
Mode extension : CM (complete main)
Codec ID : A_AC3
Duration : 1h 38mn
Bit rate mode : Constant
Bit rate : 640 Kbps
Channel(s) : 6 channels
Channel positions : Front: L C R, Side: L R, LFE
Sampling rate : 48.0 KHz
Bit depth : 16 bits
Compression mode : Lossy
Stream size : 452 MiB (5%)
Title : Оригинальный
Language : English
Default : No
Forced : No
Audio #3
ID : 4
Format : AC-3
Format/Info : Audio Coding 3
Mode extension : CM (complete main)
Codec ID : A_AC3
Duration : 1h 38mn
Bit rate mode : Constant
Bit rate : 640 Kbps
Channel(s) : 6 channels
Channel positions : Front: L C R, Side: L R, LFE
Sampling rate : 48.0 KHz
Bit depth : 16 bits
Compression mode : Lossy
Stream size : 452 MiB (5%)
Title : Украинский дублированный
Language : Ukrainian
Default : No
Forced : No
Text #1
ID : 5
Format : UTF-8
Codec ID : S_TEXT/UTF8
Codec ID/Info : UTF-8 Plain Text
Title : Английские
Language : English
Default : Yes
Forced : No
Text #2
ID : 6
Format : UTF-8
Codec ID : S_TEXT/UTF8
Codec ID/Info : UTF-8 Plain Text
Title : Русские
Language : Russian
Default : No
Forced : No

Скриншоты



Анимированные скриншоты для оценки 3Д-эффекта








Анаглифные скриншоты для оценки 3Д-эффекта




Проверено на ТВ Samsung 40C7000, Samsung 46D7000 и Philips 42PFL7606H
Остальные раздачи этого фильма (3)
Благодарности релизеру (39)

Торрент:

Статус:

Размер:

Зарегистрирован   [ 2012-11-30 09:45 ]

проверено

8.25 GB

 
 Мнение о фильме (12)





Это фильм из тех немногих , которые радуют настоящим 3D и качественной картинкой! Спасибо ещё раз!
 

Посмотрели (наконец то ) сегодня -фильм класный--спасибо !!!
 

Отличный фильм, красочный, живой! Огромное спасибо!
 
Оксана Вдовченко Профиль 16-Дек-2012 15:09

Отличный фильм, красочный, живой! Огромное спасибо!
 
Оксана Вдовченко Профиль 16-Дек-2012 15:09

Фильм херня, если честно, но качество 3D определённо радует
 

Фильм херня, если честно
наверное поэтому я его не смотрел и не собираюсь даже :)
 

классный фильм, мне очень понравился.
 

Слабый звук а так норм
 

3d так себе.Красочный фильм. Просмотр на Samsung UE 46F8000.
 

Фильм до конца,не досмотрел, по следующим причинам:
-звук вообще ни какой для 3д;
-само 3д никакое,судя по первым кадрам;
-вылетов практически нет;
-объёма нет.
 

viktor24 а ты какой фильм смотрел?И на каком оборудованием,экран двоился?
 

Мне понравилось. Но Третий интереснее. 3д - норм. Лось порадовал!))) Обожаю танцы))