Торренты   
 
 

 

Шаг вперед 4 / Step Up Revolution (Скотт Спир / Scott Speer) [2012 г., Anamorph OverUnder]

Рейтинг 3D:
56 голосов
8.0
Рейтинг фильма:
51 голосов
7.0
 
Вы должны быть авторизированы,
чтобы ставить оценки


Шаг вперед 4 3Д/ Step Up Revolution 3D«Горячее не бывает»
Год выпуска: 2012
Страна: США
Жанр: драма, мелодрама, музыка
Продолжительность: 01:38:38
Перевод: Профессиональный (дублированный)
Русские субтитры: есть
Режиссер: Скотт Спир / Scott Speer-Роли озвучивали:-Райан Гузман,Кэтрин МакКормик,Миша Гэбриел Хэмилтон,Клеопатра Коулмэн,Стивен Стэннерт,
Томми Дьюи,Питер Галлахер,Майкл «Ксено» Лэнджбек,Клаудио Пинто,Николь Дабо.

Роли дублировали:Александр Гаврилин,Вероника Саркисова,
Кирилл Туранский,Дмитрий Курта,Анна Денисова.
Описание: Эмили, дочь влиятельного бизнесмена, приезжает в Майами с намерением стать профессиональной танцовщицей, но влюбляется в Шона — юношу, чья танцевальная труппа устраивает музыкальные флэшмобы.Команда, называющаяся MOB, участвует в конкурсе с внушительным денежным призом, а тем временем отец Эмили намеревается перестроить родной район ребят и переселить тысячи людей.
Эмили присоединяется к танцорам и организует протестные мобы, рискуя не осуществить мечту, но сражаясь за нечто более важное.

Техн. детали съёмки

Премьера: 26 июля 2012 (26 июля 2012)
Бюджет: $33 000 000
Кассовые сборы: $140 470 746
Релиз на DVD и Blu-Ray: 27 ноября 2012

. .
Проверено на встроенном плейере ТВ LG LW 650S
--Качество: BDrip
Контейнер: MKV
Формат 3D: Anamorph OverUnder / Вертикальная анаморфная стереопара
Порядок ракурсов: левый ракурс первый
Видео кодек: x264
Аудио кодек: AC3-Видео: AVC / 23,976 fps / 1920х1080p / 8117 Kbps
Аудио 1: - Русский / AC3 / 48 KHz / 5.1 ch / 640 Kbps (Дубляж - BD EUR)
Аудио 2: - Украинский / AC3 / 48 KHz / 5.1 ch / 640 Kbps (Дубляж - BD EUR)
Аудио 3: - Английский / AC3 / 48 KHz / 5.1 ch / 640 Kbps
Субтитры вшитые softsub (SRT):
#1 - Русские полные(включены по умолчанию)
#2 - Английские full

MediaInfo

Общее
Уникальный идентификатор : 220539450136233931432734830790294808977 (0xA5EA5A6457B5E2D7B57824AE432AA991)
Полное имя : E:\3Д фильмы\Step Up Revolution (3D)2012.halfOU.1080p.AC3.Blu-ray CEE(m@rik05).mkv
Формат : Matroska
Версия формата : Version 2
Размер файла : 7,06 Гбайт
Продолжительность : 1 ч. 38 м.
Общий поток : 10,2 Мбит/сек
Название фильма : Step Up Revolution (2012) 3D-RuGroup
Дата кодирования : UTC 2012-11-30 09:17:10
Программа кодирования : mkvmerge v5.8.0 ('No Sleep / Pillow') built on Sep 2 2012 15:37:04
Библиотека кодирования : libebml v1.2.3 + libmatroska v1.3.0
Видео
Идентификатор : 1
Формат : AVC
Формат/Информация : Advanced Video Codec
Профиль формата : High@L4.1
Параметр CABAC формата : Да
Параметр ReFrames формата : 4 кадра
Идентификатор кодека : V_MPEG4/ISO/AVC
Продолжительность : 1 ч. 38 м.
Битрейт : 8117 Кбит/сек
Ширина : 1920 пикселей
Высота : 1080 пикселей
Соотношение сторон : 16:9
Режим частоты кадров : Постоянный
Частота кадров : 23,976 кадра/сек
Цветовое пространство : YUV
Субдискретизация насыщенности : 4:2:0
Битовая глубина : 8 бит
Тип развёртки : Прогрессивная
Бит/(Пиксели*Кадры) : 0.163
Размер потока : 5,59 Гбайт (79%)
Заголовок : rip by m@rik05
Библиотека кодирования : x264 core 116 r2074 2641b9e
Настройки программы : cabac=1 / ref=4 / deblock=1:-3:-3 / analyse=0x3:0x133 / me=umh / subme=9 / psy=1 / psy_rd=1.00:0.05 / mixed_ref=1 / me_range=16 / chroma_me=1 / trellis=2 / 8x8dct=1 / cqm=0 / deadzone=21,11 / fast_pskip=1 / chroma_qp_offset=-3 / threads=12 / sliced_threads=0 / nr=0 / decimate=1 / interlaced=0 / bluray_compat=0 / constrained_intra=0 / bframes=6 / b_pyramid=2 / b_adapt=2 / b_bias=0 / direct=3 / weightb=1 / open_gop=0 / weightp=2 / keyint=250 / keyint_min=23 / scenecut=40 / intra_refresh=0 / rc_lookahead=60 / rc=crf / mbtree=1 / crf=18.0 / qcomp=0.60 / qpmin=10 / qpmax=69 / qpstep=4 / vbv_maxrate=40000 / vbv_bufsize=40000 / crf_max=0.0 / nal_hrd=none / frame-packing=4 / ip_ratio=1.40 / aq=1:0.70
Язык : English
Default : Нет
Forced : Нет
Аудио #1
Идентификатор : 2
Формат : AC-3
Формат/Информация : Audio Coding 3
Расширение режима : CM (complete main)
Параметр Endianness формата : Big
Идентификатор кодека : A_AC3
Продолжительность : 1 ч. 38 м.
Вид битрейта : Постоянный
Битрейт : 640 Кбит/сек
Каналы : 6 каналов
Расположение каналов : Front: L C R, Side: L R, LFE
Частота : 48,0 КГц
Битовая глубина : 16 бит
Метод сжатия : С потерями
Задержка видео : 1 с. 0 мс.
Размер потока : 452 Мбайт (6%)
Заголовок : AC3 5.1 @ 640 kbps - Дублированный, Blu-ray CEE
Язык : Russian
Default : Да
Forced : Нет
Аудио #2
Идентификатор : 3
Формат : AC-3
Формат/Информация : Audio Coding 3
Расширение режима : CM (complete main)
Параметр Endianness формата : Big
Идентификатор кодека : A_AC3
Продолжительность : 1 ч. 38 м.
Вид битрейта : Постоянный
Битрейт : 640 Кбит/сек
Каналы : 6 каналов
Расположение каналов : Front: L C R, Side: L R, LFE
Частота : 48,0 КГц
Битовая глубина : 16 бит
Метод сжатия : С потерями
Задержка видео : 1 с. 0 мс.
Размер потока : 452 Мбайт (6%)
Заголовок : AC3 5.1 @ 640 kbps - Дублированный, Blu-ray CEE
Язык : Ukrainian
Default : Нет
Forced : Нет
Аудио #3
Идентификатор : 4
Формат : AC-3
Формат/Информация : Audio Coding 3
Расширение режима : CM (complete main)
Параметр Endianness формата : Big
Идентификатор кодека : A_AC3
Продолжительность : 1 ч. 38 м.
Вид битрейта : Постоянный
Битрейт : 640 Кбит/сек
Каналы : 6 каналов
Расположение каналов : Front: L C R, Side: L R, LFE
Частота : 48,0 КГц
Битовая глубина : 16 бит
Метод сжатия : С потерями
Задержка видео : 1 с. 0 мс.
Размер потока : 452 Мбайт (6%)
Заголовок : AC3 5.1 @ 640 kbps-оригинал
Язык : English
Default : Нет
Forced : Нет
Текст #1
Идентификатор : 5
Формат : UTF-8
Идентификатор кодека : S_TEXT/UTF8
Идентификатор кодека/Информация : UTF-8 Plain Text
Заголовок : полные
Язык : Russian
Default : Нет
Forced : Нет
Текст #2
Идентификатор : 6
Формат : UTF-8
Идентификатор кодека : S_TEXT/UTF8
Идентификатор кодека/Информация : UTF-8 Plain Text
Заголовок : full
Язык : English
Default : Нет
Forced : Нет
Меню
00:00:00.000 : en:00:00:00.000
00:05:36.836 : en:00:05:36.836
00:07:25.236 : en:00:07:25.236
00:11:46.915 : en:00:11:46.915
00:14:00.465 : en:00:14:00.465
00:16:54.513 : en:00:16:54.513
00:20:22.680 : en:00:20:22.680
00:23:16.228 : en:00:23:16.228
00:27:37.990 : en:00:27:37.990
00:32:30.323 : en:00:32:30.323
00:36:58.383 : en:00:36:58.383
00:39:49.387 : en:00:39:49.387
00:42:43.478 : en:00:42:43.478
00:45:50.081 : en:00:45:50.081
00:49:37.141 : en:00:49:37.141
00:56:35.642 : en:00:56:35.642
00:58:43.979 : en:00:58:43.979
01:02:47.097 : en:01:02:47.097
01:07:05.939 : en:01:07:05.939
01:11:52.391 : en:01:11:52.391
01:15:35.072 : en:01:15:35.072
01:17:22.847 : en:01:17:22.847
01:26:01.865 : en:01:26:01.865
01:31:32.195 : en:01:31:32.195

Скриншоты


Остальные раздачи этого фильма (3)
Благодарности релизеру (21)

Торрент:

Статус:

Размер:

Зарегистрирован   [ 2012-11-30 15:36 ]

проверено

7.06 GB

 
 Мнение о фильме (12)





Это фильм из тех немногих , которые радуют настоящим 3D и качественной картинкой! Спасибо ещё раз!
 

Посмотрели (наконец то ) сегодня -фильм класный--спасибо !!!
 

Отличный фильм, красочный, живой! Огромное спасибо!
 
Оксана Вдовченко Профиль 16-Дек-2012 15:09

Отличный фильм, красочный, живой! Огромное спасибо!
 
Оксана Вдовченко Профиль 16-Дек-2012 15:09

Фильм херня, если честно, но качество 3D определённо радует
 

Фильм херня, если честно
наверное поэтому я его не смотрел и не собираюсь даже :)
 

классный фильм, мне очень понравился.
 

Слабый звук а так норм
 

3d так себе.Красочный фильм. Просмотр на Samsung UE 46F8000.
 

Фильм до конца,не досмотрел, по следующим причинам:
-звук вообще ни какой для 3д;
-само 3д никакое,судя по первым кадрам;
-вылетов практически нет;
-объёма нет.
 

viktor24 а ты какой фильм смотрел?И на каком оборудованием,экран двоился?
 

Мне понравилось. Но Третий интереснее. 3д - норм. Лось порадовал!))) Обожаю танцы))