Торренты   
 
 

 

Белый медведь / Полярные медведи / Polar Bears: A Summer Odyssey / Ice Bear [2012 г., BDrip, Anamorph OverUnder]

Рейтинг 3D:
9 голосов
8.1
Рейтинг фильма:
8 голосов
8.5
 
Вы должны быть авторизированы,
чтобы ставить оценки


Полярные медведи / Polar Bears: A Summer Odyssey
Год выпуска: 2012
Страна: Канада | Universal
Жанр: документальный
Продолжительность: 00:50:45
Перевод: Профессиональный (дублированный)
Русские субтитры: нет
Режиссер: Сара Робертсон
В ролях: Дэвид Сузуки и белые медведи
Описание: Рассказ о полярных медведях в Хадсон Бэй в естественных условиях обитания. Приблизтесь к их жизни и способах выживания в суровом заполярье с помощью данной истории, снятой в 3Д.
--Релиз группы:

Проверено на встроенном плеере ТВ LG 42LW4500
--Качество: BDrip
Контейнер: MKV
Формат 3D: Anamorph OverUnder / Вертикальная анаморфная стереопара
Порядок ракурсов: левый ракурс первый
Видео кодек: x264
Аудио кодек: AC3
Видео: AVC / 23,976 fps / 1920х1080p / 22,5 Мbps
Аудио: AC3 / 5.1 ch / 448 kbps / Русский дубляж

MediaInfo

Код:
бщее
Уникальный идентификатор                 : 209525265758831409137991664878099889641 (0x9DA1192D02CE1478963143FBEC83FDE9)
Полное имя                               : G:\PolarBears.aSummerOdyssey.3D.2012.BD3DRip.Half.OU.x264.AC3.3D-RuGroup.mkv
Формат                                   : Matroska
Версия формата                           : Version 2
Размер файла                             : 8,30 Гбайт
Продолжительность                        : 50 м.
Общий поток                              : 23,4 Мбит/сек
Название фильма                          : Polar Bears: A Summer Odyssey 3D release 3D-RuGroup rip by StarStranger
Дата кодирования                         : UTC 2012-12-01 12:32:56
Программа кодирования                    : mkvmerge v3.4.0 ('Rapunzel') сборка от May 15 2010 09:38:20
Библиотека кодирования                   : libebml v0.8.0 + libmatroska v0.9.0
Видео
Идентификатор                            : 1
Формат                                   : AVC
Формат/Информация                        : Advanced Video Codec
Профиль формата                          : High@L4.1
Параметр CABAC формата                   : Да
Параметр ReFrames формата                : 4 кадра
Идентификатор кодека                     : V_MPEG4/ISO/AVC
Продолжительность                        : 50 м.
Битрейт                                  : 22,5 Мбит/сек
Ширина                                   : 1920 пикселей
Высота                                   : 1080 пикселей
Соотношение сторон                       : 16:9
Частота кадров                           : 23,976 кадра/сек
Цветовое пространство                    : YUV
Субдискретизация насыщенности            : 4:2:0
Битовая глубина                          : 8 бит
Тип развёртки                            : Прогрессивная
Бит/(Пиксели*Кадры)                      : 0.453
Размер потока                            : 7,98 Гбайт (96%)
Библиотека кодирования                   : x264 core 128 r2216 198a7ea
Настройки программы                      : cabac=1 / ref=4 / deblock=1:-3:-3 / analyse=0x3:0x133 / me=umh / subme=10 / psy=1 / psy_rd=1.00:0.15 / mixed_ref=1 / me_range=32 / chroma_me=1 / trellis=2 / 8x8dct=1 / cqm=0 / deadzone=21,11 / fast_pskip=0 / chroma_qp_offset=-3 / threads=3 / lookahead_threads=1 / sliced_threads=0 / nr=0 / decimate=1 / interlaced=0 / bluray_compat=0 / constrained_intra=0 / bframes=8 / b_pyramid=2 / b_adapt=2 / b_bias=0 / direct=3 / weightb=1 / open_gop=0 / weightp=2 / keyint=250 / keyint_min=23 / scenecut=40 / intra_refresh=0 / rc_lookahead=60 / rc=crf / mbtree=1 / crf=18.0 / qcomp=0.70 / qpmin=0 / qpmax=69 / qpstep=4 / vbv_maxrate=50000 / vbv_bufsize=50000 / crf_max=0.0 / nal_hrd=none / ip_ratio=1.40 / aq=1:0.90
Default                                  : Да
Forced                                   : Нет
Аудио
Идентификатор                            : 2
Формат                                   : AC-3
Формат/Информация                        : Audio Coding 3
Расширение режима                        : CM (complete main)
Идентификатор кодека                     : A_AC3
Продолжительность                        : 50 м.
Вид битрейта                             : Постоянный
Битрейт                                  : 448 Кбит/сек
Каналы                                   : 6 каналов
Расположение каналов                     : Front: L C R, Side: L R, LFE
Частота                                  : 48,0 КГц
Битовая глубина                          : 16 бит
Метод сжатия                             : С потерями
Размер потока                            : 163 Мбайт (2%)
Заголовок                                : DUB
Язык                                     : Russian
Default                                  : Да
Forced                                   : Нет
Меню
00:00:26.688                             : :01
00:07:32.530                             : :02
00:12:55.561                             : :03
00:18:57.798                             : :04
00:27:26.097                             : :05
00:33:28.001                             : :06
00:38:14.745                             : :07
00:42:48.102                             : :08

Скриншоты





--
Благодарности релизеру (17)

Торрент:

Статус:

Размер:

Зарегистрирован   [ 2012-12-01 16:43 ]

проверено

8.3 GB