Торренты   
 
 

 

Шаг вперед 4 / Step Up Revolution [2012 г. BDrip, 1080p]Full OverUnder

Рейтинг 3D:
56 голосов
8.0
Рейтинг фильма:
51 голосов
7.0
 
Вы должны быть авторизированы,
чтобы ставить оценки


Шаг вперед 4 / Step Up Revolution
Год выпуска: 2012
Страна: США
Студия: Offspring Entertainment, Summit Entertainment
Жанр: драма, мелодрама, музыка
Продолжительность: 01:38:38
Перевод: Профессиональный (дублированный)
Русские субтитры: нет
Режиссер на русском: Скотт Спир
Режиссер на английском: Scott Speer
В ролях: Райан Гузман,Кэтрин МакКормик,Миша Гэбриел Хэмилтон,Клеопатра Коулмэн,Стивен Стэннерт,
Томми Дьюи,Питер Галлахер,Майкл «Ксено» Лэнджбек,Клаудио Пинто,Николь Дабо.
Роли озвучивали: Александр Гаврилин,Вероника Саркисова,
Кирилл Туранский,Дмитрий Курта,Анна Денисова.
Описание: Эмили, дочь влиятельного бизнесмена, приезжает в Майами с намерением стать профессиональной танцовщицей, но влюбляется в Шона — юношу, чья танцевальная труппа устраивает музыкальные флэшмобы.Команда, называющаяся MOB, участвует в конкурсе с внушительным денежным призом, а тем временем отец Эмили намеревается перестроить родной район ребят и переселить тысячи людей.
Эмили присоединяется к танцорам и организует протестные мобы, рискуя не осуществить мечту, но сражаясь за нечто более важное.
Сэмпл: http://www.sendspace.com/file/m8m2ac
Качество: BDrip
Контейнер: MKV
Формат 3D: OverUnder / Вертикальная стереопара
Порядок ракурсов: левый ракурс первый
Видео кодек: x264
Аудио кодек: DTS
Видео: AVC /High@L5.0/ 23,976 fps / 1920х1600 / 16.6 Mbps
Аудио: Русский / DTS / 48 KHz / 7.1 ch / 1510 Kbps
Аудио 2: Украинский / DTS / 48 KHz / 5.1 ch / 1510 Kbps
Аудио 3: Английский / DTS / 48 KHz / 5.1 ch / 1510 Kbps
ВНИМАНИЕ ! На встроенных ТВ-плейерах работать не будет!!!
Железные плееры на которых воспроизводятся полные стереопары:Popcorn C-200 , Dune HD Smart D1 , Dune HD DUO , Dune HD Smart H1 , Dune HD Smart B1 , Dune HD Max.

MediaInfo

General
Unique ID : 186912421137797019335087169989021511547 (0x8C9E05DBC5E46A9C95B6734DDD6FAF7B)
Complete name : E:\закачки\Step Up Revolution.mkv
Format : Matroska
Format version : Version 2
File size : 16.4 GiB
Duration : 1h 38mn
Overall bit rate mode : Variable
Overall bit rate : 23.8 Mbps
Encoded date : UTC 2012-12-01 14:36:09
Writing application : mkvmerge v3.4.0 ('Rapunzel') сборка от May 15 2010 09:38:20
Writing library : libebml v0.8.0 + libmatroska v0.9.0
Video
ID : 1
Format : AVC
Format/Info : Advanced Video Codec
Format profile : High@L5.0
Format settings, CABAC : Yes
Format settings, ReFrames : 4 frames
Codec ID : V_MPEG4/ISO/AVC
Duration : 1h 38mn
Bit rate : 16.6 Mbps
Width : 1 920 pixels
Height : 1 600 pixels
Display aspect ratio : 1.200
Frame rate : 23.976 fps
Color space : YUV
Chroma subsampling : 4:2:0
Bit depth : 8 bits
Scan type : Progressive
Bits/(Pixel*Frame) : 0.226
Stream size : 11.5 GiB (70%)
Title : Rip by SeRoGa00
Writing library : x264 core 128 r2216kMod 198a7ea
Encoding settings : cabac=1 / ref=4 / deblock=1:-3:-3 / analyse=0x3:0x113 / me=umh / subme=9 / psy=1 / fade_compensate=0.00 / psy_rd=1.00:0.15 / mixed_ref=1 / me_range=16 / chroma_me=1 / trellis=2 / 8x8dct=1 / cqm=0 / deadzone=21,11 / fast_pskip=1 / chroma_qp_offset=-3 / threads=9 / lookahead_threads=1 / sliced_threads=0 / nr=0 / decimate=1 / interlaced=0 / bluray_compat=0 / constrained_intra=0 / bframes=6 / b_pyramid=2 / b_adapt=2 / b_bias=0 / direct=3 / weightb=1 / open_gop=0 / weightp=2 / keyint=250 / keyint_min=23 / scenecut=40 / intra_refresh=0 / rc_lookahead=60 / rc=crf / mbtree=1 / crf=18.0000 / qcomp=0.60 / qpmin=10 / qpmax=69 / qpstep=4 / vbv_maxrate=40000 / vbv_bufsize=40000 / crf_max=0.0 / nal_hrd=none / ip_ratio=1.40 / aq=1:1.00
Language : English
Audio #1
ID : 2
Format : DTS
Format/Info : Digital Theater Systems
Format profile : MA / Core
Codec ID : A_DTS
Duration : 1h 38mn
Bit rate mode : Variable
Bit rate : 2 572 Kbps / 1 510 Kbps
Channel(s) : 8 channels / 6 channels
Channel positions : Front: L C R, Side: L R, Back: L R, LFE / Front: L C R, Side: L R, LFE
Sampling rate : 48.0 KHz
Bit depth : 16 bits
Compression mode : Lossless / Lossy
Language : Russian
Audio #2
ID : 3
Format : DTS
Format/Info : Digital Theater Systems
Format profile : HRA / Core
Codec ID : A_DTS
Duration : 1h 38mn
Bit rate mode : Constant
Bit rate : 2 047 Kbps / 1 510 Kbps
Channel(s) : 6 channels
Channel positions : Front: L C R, Side: L R, LFE
Sampling rate : 48.0 KHz
Bit depth : 16 bits / 24 bits
Compression mode : Lossy
Stream size : 1.41 GiB (9%)
Language : Ukrainian
Audio #3
ID : 4
Format : DTS
Format/Info : Digital Theater Systems
Format profile : HRA / Core
Codec ID : A_DTS
Duration : 1h 38mn
Bit rate mode : Constant
Bit rate : 2 047 Kbps / 1 510 Kbps
Channel(s) : 6 channels
Channel positions : Front: L C R, Side: L R, LFE
Sampling rate : 48.0 KHz
Bit depth : 16 bits / 24 bits
Compression mode : Lossy
Stream size : 1.41 GiB (9%)
Language : English

Скриншоты


Остальные раздачи этого фильма (3)
Благодарности релизеру (10)

Торрент:

Статус:

Размер:

Зарегистрирован   [ 2012-12-01 19:38 ]

проверено

16.38 GB

 
 Мнение о фильме (12)





Это фильм из тех немногих , которые радуют настоящим 3D и качественной картинкой! Спасибо ещё раз!
 

Посмотрели (наконец то ) сегодня -фильм класный--спасибо !!!
 

Отличный фильм, красочный, живой! Огромное спасибо!
 
Оксана Вдовченко Профиль 16-Дек-2012 15:09

Отличный фильм, красочный, живой! Огромное спасибо!
 
Оксана Вдовченко Профиль 16-Дек-2012 15:09

Фильм херня, если честно, но качество 3D определённо радует
 

Фильм херня, если честно
наверное поэтому я его не смотрел и не собираюсь даже :)
 

классный фильм, мне очень понравился.
 

Слабый звук а так норм
 

3d так себе.Красочный фильм. Просмотр на Samsung UE 46F8000.
 

Фильм до конца,не досмотрел, по следующим причинам:
-звук вообще ни какой для 3д;
-само 3д никакое,судя по первым кадрам;
-вылетов практически нет;
-объёма нет.
 

viktor24 а ты какой фильм смотрел?И на каком оборудованием,экран двоился?
 

Мне понравилось. Но Третий интереснее. 3д - норм. Лось порадовал!))) Обожаю танцы))