Торренты   
 
 


Удивительный океан в 3Д / Amazing Ocean 3D (Benjamin Eicher, Timo Joh. Mayer) [2012, Документальный, Видовой, BDrip, 1080p]Full OverUnder / Вертикальная стереопара

Рейтинг 3D:
Пока никто не голосовал
Рейтинг фильма:
Пока никто не голосовал
 
Вы должны быть авторизированы,
чтобы ставить оценки


Удивительный океан / Amazing Ocean
Год выпуска: 2012
Страна: Германия
Студия: Universal Pictures
Жанр: Документальный
Продолжительность: 00:49:13
Перевод: Профессиональный (дублированный)
Русские субтитры: нет
Режиссер на русском: Тимо Дж. Мэйер, Бенжамин Ичер
Режиссер на английском: Benjamin Eicher, Timo Joh. Mayer
В ролях: обитатели подводного мира
Описание: Полюбуйтесь маленькими стайками разноцветных рыбок, которые, кажется, вот-вот заплывут в вашу гостиную! Вы сможете рассмотреть вблизи кальмара и ловкого осьминога, восхитительного ската-манту, а также подружиться с дельфинами и черепахами — прямо на собственном диване! Снятый с помощью 3D-камеры "Удивительный океан 3D" станет захватывающим приключением для всей семьи. Настоящее удовольствие для всех, кто стремится к новым открытиям! А выбрав третью аудио-дорожку вы сможете отключить повествование и насладиться потрясающими кадрами фильма под звуки музыки.
Сэмпл: http://www.sendspace.com/file/j7izms
Качество: BDrip
Контейнер: MKV
Формат 3D: OverUnder / Вертикальная стереопара
Порядок ракурсов: левый ракурс первый
Видео кодек: x264
Аудио кодек: DTS
Видео: AVC /High@L5.0 / 23,976 fps / 1920х2160 / 30.5 Mbps
Аудио: Русский / DTS / 48 KHz / 2 ch / 448 Kbps
Аудио 2: Английский / DTS / 48 KHz / 2 ch / 1510 Kbps
ВНИМАНИЕ ! На встроенных ТВ-плейерах работать не будет!!!
Железные плееры на которых воспроизводятся полные стереопары:Popcorn C-200 , Dune HD Smart D1 , Dune HD DUO , Dune HD Smart H1 , Dune HD Smart B1 , Dune HD Max.

MediaInfo

General
Unique ID : 187714611476093261738794257321951223880 (0x8D3884E550DC6C3891DA75B5A38FE048)
Complete name : E:\закачки\Amazing Ocean.mkv
Format : Matroska
Format version : Version 2
File size : 11.4 GiB
Duration : 49mn 13s
Overall bit rate mode : Variable
Overall bit rate : 33.1 Mbps
Encoded date : UTC 2012-12-03 07:34:22
Writing application : mkvmerge v3.4.0 ('Rapunzel') сборка от May 15 2010 09:38:20
Writing library : libebml v0.8.0 + libmatroska v0.9.0
Video
ID : 1
Format : AVC
Format/Info : Advanced Video Codec
Format profile : High@L5.0
Format settings, CABAC : Yes
Format settings, ReFrames : 4 frames
Codec ID : V_MPEG4/ISO/AVC
Duration : 49mn 13s
Bit rate : 30.5 Mbps
Width : 1 920 pixels
Height : 2 160 pixels
Display aspect ratio : 0.889
Frame rate : 23.976 fps
Color space : YUV
Chroma subsampling : 4:2:0
Bit depth : 8 bits
Scan type : Progressive
Bits/(Pixel*Frame) : 0.307
Stream size : 10.5 GiB (92%)
Title : Rip by SeRoGa00
Writing library : x264 core 128 r2216kMod 198a7ea
Encoding settings : cabac=1 / ref=4 / deblock=1:-3:-3 / analyse=0x3:0x113 / me=umh / subme=9 / psy=1 / fade_compensate=0.00 / psy_rd=1.00:0.15 / mixed_ref=1 / me_range=16 / chroma_me=1 / trellis=2 / 8x8dct=1 / cqm=0 / deadzone=21,11 / fast_pskip=1 / chroma_qp_offset=-3 / threads=9 / lookahead_threads=1 / sliced_threads=0 / nr=0 / decimate=1 / interlaced=0 / bluray_compat=0 / constrained_intra=0 / bframes=6 / b_pyramid=2 / b_adapt=2 / b_bias=0 / direct=3 / weightb=1 / open_gop=0 / weightp=2 / keyint=250 / keyint_min=23 / scenecut=40 / intra_refresh=0 / rc_lookahead=60 / rc=crf / mbtree=1 / crf=18.0000 / qcomp=0.60 / qpmin=10 / qpmax=69 / qpstep=4 / vbv_maxrate=40000 / vbv_bufsize=40000 / crf_max=0.0 / nal_hrd=none / ip_ratio=1.40 / aq=1:1.00
Language : English
Audio #1
ID : 2
Format : DTS
Format/Info : Digital Theater Systems
Codec ID : A_DTS
Duration : 49mn 13s
Bit rate mode : Constant
Bit rate : 448 Kbps
Channel(s) : 2 channels
Channel positions : Front: L R
Sampling rate : 48.0 KHz
Bit depth : 24 bits
Compression mode : Lossy
Stream size : 158 MiB (1%)
Language : Russian
Audio #2
ID : 3
Format : DTS
Format/Info : Digital Theater Systems
Format profile : MA / Core
Codec ID : A_DTS
Duration : 49mn 13s
Bit rate mode : Variable
Bit rate : 1 555 Kbps / 1 510 Kbps
Channel(s) : 2 channels
Channel positions : Front: L R
Sampling rate : 48.0 KHz
Bit depth : 24 bits
Compression mode : Lossless / Lossy
Language : English

Скриншоты


Благодарности релизеру (6)

Торрент:

Статус:

Размер:

Зарегистрирован   [ 2012-12-03 13:02 ]

проверено

11.4 GB

 
 Мнение о фильме (2)





на телевизоре LG Smart TV Sinenma 3D фильм не пошел. Возможности разрешения не позволили получить удовольствие от просмотра. :-(
 

спасибо!