Торренты   
 
 


Justin Bieber: Never Say Never Джастин Бибер: Никогда не говори никогда [2011 г., Anamorph SideBySide] BDRip 1080P

Рейтинг 3D:
7 голосов
4.0
Рейтинг фильма:
6 голосов
2.5
 
Вы должны быть авторизированы,
чтобы ставить оценки


Justin Bieber: Never Say Never Джастин Бибер: Никогда не говори никогда

Год выпуска: 2011
Страна: США Канада
Жанр: документальный, музыкальный
Продолжительность: : 1 ч. 40 м.
Язык: English
Субтитры: Отсутствуют
Описание: Фильм, посвящённый поп-звезде Джастину Биберу, рассказывает о 10 днях из его жизни, которые предшествуют выступлению в Madison Square Garden. Билеты на этот концерт, прошедший 31 августа 2010 года и считающийся на тот момент самым крупным в его карьере, были распроданы в течение первых 22 минут продаж.
Несмотря на то, что в фильме нет интервью с самим Джастином, там присутствуют рассказы людей из его окружения. В нём также показано посещение Бибером родного города во время его тура по Канаде. Тогда он сорвал голос во время отдыха со своими старыми друзьями. В результате выступление в Сиракьюсе пришлось отложить. Ему было запрещено несколько дней разговаривать, чтоб таким образом голос достаточно восстановился к следующему концерту в Madison Square Garden.
На церемонии вручения премии MTV Movie Awards 2011, которая прошла 5 июня 2011 года, фильм победил в номинации «Самый безумный эпизод»
Также в фильме присутствуют истории и старые видео из детства Бибера.
PS Несмотря на то, что фильм позиционируется как 3D, реальный объем только на концертных съёмках.
PPS Никоим образом не фанат.
Исключительно для коллекции

Формат 3D: Anamorph SideBySide
Порядок ракурсов: Параллельная пара

Скриншоты

MediaInfo

[
Уникальный идентификатор : 195625460337645585673500458176475278928 (0x932C17DB9EA5B2179AD873ED3043AE50)
Полное имя : I:\Justin.Bieber.Never.Say.Never.Blu-Ray.3D.1080P.MoRT!\Justin.Bieber.Never.Say.Never.Blu-Ray.3D.1080P.MoRT!.mkv
Формат : Matroska
Версия формата : Version 2
Размер файла : 8,73 Гбайт
Продолжительность : 1 ч. 40 м.
Режим общего битрейта : Переменный
Общий поток : 12,5 Мбит/сек
Название фильма : Justin Beiber - 3D4u
Дата кодирования : UTC 2011-08-04 02:31:50
Программа кодирования : mkvmerge v4.7.0 ('Just Like You Imagined') built on Apr 21 2011 01:13:14
Библиотека кодирования : libebml v1.2.0 + libmatroska v1.1.0
Видео
Идентификатор : 1
Формат : AVC
Формат/Информация : Advanced Video Codec
Профиль формата : Main@L4.0
Параметр CABAC формата : Да
Параметр ReFrames формата : 2 кадра
Идентификатор кодека : V_MPEG4/ISO/AVC
Продолжительность : 1 ч. 40 м.
Вид битрейта : Переменный
Битрейт : 11,8 Мбит/сек
Максимальный битрейт : 18,0 Мбит/сек
Ширина : 1920 пикселей
Высота : 1080 пикселей
Соотношение сторон : 16:9
Частота кадров : 25,000 кадров/сек
Цветовое пространство : YUV
Субдискретизация насыщенности : 4:2:0
Битовая глубина : 8 бит
Тип развёртки : Прогрессивная
Бит/(Пиксели*Кадры) : 0.227
Размер потока : 8,24 Гбайт (94%)
Язык : English
Default : Да
Forced : Нет
Аудио
Идентификатор : 2
Формат : AC-3
Формат/Информация : Audio Coding 3
Расширение режима : CM (complete main)
Параметр Endianness формата : Big
Идентификатор кодека : A_AC3
Продолжительность : 1 ч. 40 м.
Вид битрейта : Постоянный
Битрейт : 448 Кбит/сек
Каналы : 6 каналов
Расположение каналов : Front: L C R, Side: L R, LFE
Частота : 48,0 КГц
Битовая глубина : 16 бит
Метод сжатия : С потерями
Размер потока : 322 Мбайт (4%)
Язык : English
Default : Да
Forced : Нет]
Благодарности релизеру (3)

Торрент:

Статус:

Размер:

Зарегистрирован   [ 2012-12-03 16:00 ]

проверено

8.74 GB

 
 Мнение о фильме (11)





Фу!!!!
 

А кто это такой вообще?
 

это лох
 

Фу-фу-фу.. нашли кого снимать
 

спасибо гляним дочка обажает его
 

Для дочки качну с удовольствием ...
 

ОБНОВИТЕ РАЗДАЧУ! есть же нормальный Профессиональный (многоголосый закадровый) перевод от MVO "Пифагор"
 

Дайте пожалуйста скорости плиииз!!! Ребенок просит!!!!!!!!!!
 
Сеня Бакин Профиль 30-Дек-2013 18:09

Не могу скачать. Дайте пожалуйста скорость. Благодарю!
 
Вадик Фаттахов Профиль 29-Мар-2015 07:09

Для гейпорно существуют специальные сайты. Зачем сюда. ))
 

По ходу только у меня ребенок эту хрень не слушает.