Торренты   
 
 


Паранорман, или Как приручить зомби / ParaNormaN [2012, BDrip, half1080p, Anamorph SideBySide]

Рейтинг 3D:
38 голосов
6.7
Рейтинг фильма:
38 голосов
7.3
 
Вы должны быть авторизированы,
чтобы ставить оценки


Паранорман, или Как приручить зомби / ParaNormaN
Год выпуска: 2012
Страна: США
Жанр: мультфильм, ужасы, фэнтези, комедия, приключения
Продолжительность: 01:32:14
Перевод: Профессиональный (полное дублирование)
Режиссеры: Крис Батлер, Сэм Фелл
Актёры озвучания:
Коди Смит-МакФи, Таккер Албрицци, Анна Кендрик, Кейси Аффлек, Кристофер Минц-Плассе, Лесли Манн, Джефф Гарлин, Илэйн Стритч, Бернард Хилл, Джоделль Ферланд и др.
Актёры российского дубляжа:
Александр Комлев, Денис Беспалый, Алексей Борзунов, Вероника Саркисова, Алексей Колган
Описание: Норман, Паранорман. Единственная надежда полусонного городка в борьбе с полчищами нечисти. Его оружие — супер-мега-дар: умение общаться с призраками. Впрочем, мертвецы — не главная опасность, куда хуже — глупые взрослые с дробовиками наперевес ...
Качество: BDrip by Alexman©
Формат 3D: Anamorph SideBySide / Горизонтальная анаморфная стереопара
Порядок ракурсов: левый ракурс первый
Видео: MPEG4 AVC, 5 578 Kbps Mbps, 1920x1080, 23.976 кадр/с
Аудио №1: Русский дублированный перевод / AC3 / 48 KHz / 5.1 ch / 384 Kbps
Аудио №2: Английский оригинальный / AC3 / 48 KHz / 5.1 ch / 640 Kbps

MediaInfo

General
Unique ID : 254606180782681480939580684606949277632 (0xBF8B5DE3F4155EDDBA6E73FA2C8BBFC0)
Complete name : ParaNorman [Паранорман, или Как приручить зомби] (2012) DUB hSbS 1080p by Alexman©.mkv
Format : Matroska
Format version : Version 2
File size : 4.34 GiB
Duration : 1h 32mn
Overall bit rate : 6 736 Kbps
Encoded date : UTC 2012-12-06 04:52:54
Writing application : mkvmerge v5.8.0 ('No Sleep / Pillow') built on Sep 2 2012 15:37:04
Writing library : libebml v1.2.3 + libmatroska v1.3.0
Video
ID : 1
Format : AVC
Format/Info : Advanced Video Codec
Format profile : High@L4.1
Format settings, CABAC : Yes
Format settings, ReFrames : 4 frames
Codec ID : V_MPEG4/ISO/AVC
Duration : 1h 32mn
Bit rate : 5 578 Kbps
Width : 1 920 pixels
Height : 1 080 pixels
Display aspect ratio : 16:9
Frame rate : 23.976 fps
Color space : YUV
Chroma subsampling : 4:2:0
Bit depth : 8 bits
Scan type : Progressive
Bits/(Pixel*Frame) : 0.112
Stream size : 3.59 GiB (83%)
Title : riped by Alexman ©
Writing library : x264 core 129 r2230 1cffe9f
Encoding settings : cabac=1 / ref=4 / deblock=1:-3:-3 / analyse=0x3:0x113 / me=umh / subme=9 / psy=1 / psy_rd=1.00:0.15 / mixed_ref=1 / me_range=32 / chroma_me=1 / trellis=2 / 8x8dct=1 / cqm=0 / deadzone=21,11 / fast_pskip=1 / chroma_qp_offset=-3 / threads=6 / lookahead_threads=1 / sliced_threads=0 / nr=0 / decimate=1 / interlaced=0 / bluray_compat=0 / constrained_intra=0 / bframes=4 / b_pyramid=2 / b_adapt=2 / b_bias=0 / direct=3 / weightb=1 / open_gop=0 / weightp=2 / keyint=250 / keyint_min=23 / scenecut=40 / intra_refresh=0 / rc_lookahead=60 / rc=crf / mbtree=1 / crf=16.0 / qcomp=0.60 / qpmin=0 / qpmax=69 / qpstep=4 / vbv_maxrate=40000 / vbv_bufsize=40000 / crf_max=0.0 / nal_hrd=none / ip_ratio=1.40 / aq=1:0.70
Language : English
Default : Yes
Forced : No
Audio #1
ID : 2
Format : AC-3
Format/Info : Audio Coding 3
Mode extension : CM (complete main)
Codec ID : A_AC3
Duration : 1h 32mn
Bit rate mode : Constant
Bit rate : 384 Kbps
Channel(s) : 6 channels
Channel positions : Front: L C R, Side: L R, LFE
Sampling rate : 48.0 KHz
Bit depth : 16 bits
Compression mode : Lossy
Stream size : 253 MiB (6%)
Title : Русский дублированный
Language : Russian
Default : Yes
Forced : Yes
Audio #2
ID : 3
Format : AC-3
Format/Info : Audio Coding 3
Mode extension : CM (complete main)
Codec ID : A_AC3
Duration : 1h 32mn
Bit rate mode : Constant
Bit rate : 640 Kbps
Channel(s) : 6 channels
Channel positions : Front: L C R, Side: L R, LFE
Sampling rate : 48.0 KHz
Bit depth : 16 bits
Compression mode : Lossy
Stream size : 422 MiB (10%)
Title : Оригинал
Language : English
Default : No
Forced : No

Скриншоты




Анимированные скриншоты для оценки 3Д-эффекта








Анаглифные скриншоты для оценки 3Д-эффекта




Проверено на ТВ Samsung 40C7000, Samsung 46D7000 и Philips 42PFL7606H
Остальные раздачи этого фильма (4)
Благодарности релизеру (9)

Торрент:

Статус:

Размер:

Зарегистрирован   [ 2012-12-06 09:23 ]

проверено

4.34 GB

 
 Мнение о фильме (5)





Достаточно смотрибельно. Не ясно, откуда такой большой рейтинг у проходного мульта… Всё настолько шаблонно и стандартно, что сводит зубы и нападает зевота. Но благодаря сочной 3D картинке мульт выезжает чуть выше плинтуса… Оценка: 3
 

это точно сказанно
 

Не сказать,чтобы мульт гениален,но вполне смотрибелен.Согласен с Lodoeb.
 

Нормальный мульт.,детям понравится
 

Ребят, а по-моему полнейшая бредятина, давно такого качественного шлака не наблюдал. еле досмотрел до конца, не знаю с чем даже можно сравнить.....