Торренты   
 
 


Обитель зла: Возмездие / Resident Evil: Retribution (Пол У. С. Андерсон) [2012 г.,BDRip, Full OverUnder]

Рейтинг 3D:
18 голосов
6.8
Рейтинг фильма:
18 голосов
5.9
 
Вы должны быть авторизированы,
чтобы ставить оценки


Обитель зла: Возмездие / Resident Evil: Retribution
Год выпуска: 2012
Страна: Германия, Канада
Жанр: ужасы, фантастика, боевик, триллер
Продолжительность: 01:35:37
Перевод: Профессиональный (полное дублирование)
Режиссер: Пол У. С. Андерсон
В ролях: Милла Йовович / Milla Jovovich (Alice), Сиенна Гиллори / Sienna Guillory (Jill Valentine), Мишель Родригес / Michelle Rodriguez (Rain), Ариана Энджинир / Aryana Engineer (Becky), Ли Бинбин / Li Bingbing (Ada Wong), Борис Коджо / Boris Kodjoe (Luther West), Йохан Урб / Johann Urb (Leon S. Kennedy), Робин Касянов / Robin Kasyanov (Sergei), Кевин Дюран / Kevin Durand (Barry Burton), Офилио Портильо / Ofilio Portillo (Tony), Одед Фер / Oded Fehr (Todd / Carlos), Колин Сэлмон / Colin Salmon (James 'One' Shade)
Описание: Смертельный T-вирус, созданный в лабораториях корпорации «Амбрелла», продолжает захватывать Землю, превращая мировое население в легионы пожирающих плоть зомби. Последняя надежда человечества Элис внедряется в самое сердце самой тайной исследовательской базы корпорации и узнает еще больше о собственном таинственном прошлом. Не имея путей к отступлению, Элис продолжает искать виновных в глобальной катастрофе. Вызов, который она принимала в Токио, Нью-Йорке, Вашингтоне и даже в Москве, приводит ее в итоге к взрывающему сознание откровению, которое заставит ее переосмыслить все, что она полагала правдой. С помощью новых союзников и старых друзей, Элис будет сражаться за выживание и убегать из враждебного мира. Отсчет времени начат...
Релиз группы:
Формат 3D: OverUnder
Видео: AVC, High@L5.0, 1920x1600, 23.976 fps, 16,4 Мбит/сек
Аудио: Rus, AC-3, 6 каналов, 640 Кбит/сек, 48,0 КГц
Аудио: Eng, DTS, 6 каналов, 1510 Кбит/сек, 48,0 КГц

Скриншоты




MediaInfo

Общее
Уникальный идентификатор : 223947104821775205811501790844288259005 (0xA87AA4BD4D211CC288B74D82404453BD)
Полное имя : E:\STEREO\Resident Evil_Retribution 1080p Rip by Dag13.mkv
Формат : Matroska
Версия формата : Version 2
Размер файла : 12,6 Гбайт
Продолжительность : 1 ч. 35 м.
Общий поток : 18,9 Мбит/сек
Дата кодирования : UTC 2012-12-08 06:40:59
Программа кодирования : mkvmerge v3.4.0 ('Rapunzel') сборка от May 15 2010 09:38:20
Библиотека кодирования : libebml v0.8.0 + libmatroska v0.9.0
Видео
Идентификатор : 1
Формат : AVC
Формат/Информация : Advanced Video Codec
Профиль формата : High@L5.0
Параметр CABAC формата : Да
Параметр ReFrames формата : 4 кадра
Идентификатор кодека : V_MPEG4/ISO/AVC
Продолжительность : 1 ч. 35 м.
Битрейт : 16,4 Мбит/сек
Ширина : 1920 пикселей
Высота : 1600 пикселей
Соотношение сторон : 1,200
Режим частоты кадров : Постоянный
Частота кадров : 23,976 кадра/сек
Цветовое пространство : YUV
Субдискретизация насыщенности : 4:2:0
Битовая глубина : 8 бит
Тип развёртки : Прогрессивная
Бит/(Пиксели*Кадры) : 0.223
Размер потока : 11,0 Гбайт (87%)
Заголовок : Rip by Dag13
Библиотека кодирования : x264 core 120 r2145 748fe16
Настройки программы : cabac=1 / ref=4 / deblock=1:-3:-3 / analyse=0x3:0x113 / me=umh / subme=9 / psy=1 / psy_rd=1.00:0.00 / mixed_ref=1 / me_range=16 / chroma_me=1 / trellis=1 / 8x8dct=1 / cqm=0 / deadzone=21,11 / fast_pskip=1 / chroma_qp_offset=-2 / threads=9 / sliced_threads=0 / nr=0 / decimate=1 / interlaced=0 / bluray_compat=0 / constrained_intra=0 / bframes=6 / b_pyramid=2 / b_adapt=2 / b_bias=0 / direct=3 / weightb=1 / open_gop=0 / weightp=2 / keyint=250 / keyint_min=23 / scenecut=40 / intra_refresh=0 / rc_lookahead=60 / rc=crf / mbtree=1 / crf=18.0 / qcomp=0.60 / qpmin=1 / qpmax=69 / qpstep=4 / ip_ratio=1.40 / aq=1:1.00
Язык : English
Default : Нет
Forced : Нет
Аудио #1
Идентификатор : 2
Формат : AC-3
Формат/Информация : Audio Coding 3
Расширение режима : CM (complete main)
Параметр Endianness формата : Big
Идентификатор кодека : A_AC3
Продолжительность : 1 ч. 35 м.
Вид битрейта : Постоянный
Битрейт : 640 Кбит/сек
Каналы : 6 каналов
Расположение каналов : Front: L C R, Side: L R, LFE
Частота : 48,0 КГц
Битовая глубина : 16 бит
Метод сжатия : С потерями
Размер потока : 438 Мбайт (3%)
Язык : Russian
Default : Да
Forced : Нет
Аудио #2
Идентификатор : 3
Формат : DTS
Формат/Информация : Digital Theater Systems
Идентификатор кодека : A_DTS
Продолжительность : 1 ч. 35 м.
Вид битрейта : Постоянный
Битрейт : 1510 Кбит/сек
Каналы : 6 каналов
Расположение каналов : Front: L C R, Side: L R, LFE
Частота : 48,0 КГц
Битовая глубина : 24 бит
Метод сжатия : С потерями
Размер потока : 1,01 Гбайт (8%)
Язык : English
Default : Нет
Forced : Нет
На встроенных ТВ-плейерах показывать НЕ будет!!!
Благодарности релизеру (20)

Торрент:

Статус:

Размер:

Зарегистрирован   [ 2012-12-08 12:15 ]

проверено

12.65 GB