Торренты   
 
 

 

Обитель Зла: Возмездие / Resident Evil: Retribution (Пол У. С. Андерсон / Paul W.S. Anderson) [2012 г., Anamorph OverUnder]

Рейтинг 3D:
80 голосов
7.9
Рейтинг фильма:
79 голосов
5.8
 
Вы должны быть авторизированы,
чтобы ставить оценки


Обитель Зла: Возмездие 3Д/ Resident Evil: Retribution 3D«А зомби здесь тихие... »
Год выпуска: 2012
Страна: США, Германия, Канада (Constantin Film International)
Жанр: ужасы, фантастика, боевик, триллер
Продолжительность: 01:35:37
Перевод: Профессиональный (полное дублирование)
Режиссер: Пол У. С. Андерсон / Paul W.S. Anderson-Роли озвучивали(дублировали):Милла Йовович / Milla Jovovich (Alice), Сиенна Гиллори / Sienna Guillory (Jill Valentine), Мишель Родригес / Michelle Rodriguez (Rain), Ариана Энджинир / Aryana Engineer (Becky), Ли Бинбин / Li Bingbing (Ada Wong), Борис Коджо / Boris Kodjoe (Luther West), Йохан Урб / Johann Urb (Leon S. Kennedy), Робин Касянов / Robin Kasyanov (Sergei), Кевин Дюран / Kevin Durand (Barry Burton), Офилио Портильо / Ofilio Portillo (Tony), Одед Фер / Oded Fehr (Todd / Carlos), Колин Сэлмон / Colin Salmon (James 'One' Shade)Описание: Смертельный T-вирус, созданный в лабораториях корпорации «Амбрелла», продолжает захватывать Землю, превращая мировое население в легионы пожирающих плоть зомби. Последняя надежда человечества, Элис, внедряется в самое сердце самой тайной исследовательской базы корпорации и узнает еще больше о собственном таинственном прошлом. Не имея путей к отступлению, Элис продолжает искать виновных в глобальной катастрофе. Вызов, который она принимала в Токио, Нью-Йорке, Вашингтоне и даже в Москве, приводит ее в итоге к взрывающему сознание откровению, которое заставит ее переосмыслить все, что она полагала правдой. С помощью новых союзников и старых друзей, Элис будет сражаться за выживание и убегать из враждебного мира. Отсчет времени начат…

Знаете ли вы, что...

• Дженсен Эклс пробовался на роль Леона Кеннеди, но позже её получил Йохан Урб.
• Ариана Энджинир получила роль Бекки без прослушивания.

Техн. детали съёмки

Премьера: 3 сентября 2012, (13 сентября 2012)
Бюджет: $65 000 000
Кассовые сборы: $221 545 531
Релиз на DVD и Blu-Ray: 17 декабря 2012

. .
Проверено на встроенном плейере ТВ LG LW 650S
--Качество: BDrip
Контейнер: MKV
Формат 3D: Anamorph OverUnder / Вертикальная анаморфная стереопара
Порядок ракурсов: левый ракурс первый
Видео кодек: x264
Аудио кодек: AC3-Видео: AVC / 23,976 fps / 1920х1080p / 10,7 Mbps
Аудио 1: - Русский / AC3 / 48 KHz / 5.1 ch / 640 Kbps (Дубляж - BD EUR)
Аудио 2: - Украинский / AC3 / 48 KHz / 5.1 ch / 640 Kbps (Дубляж - BD EUR)
Аудио 3: - Английский / AC3 / 48 KHz / 5.1 ch / 640 Kbps (Оригинал)
Аудио 4: - Английский / AC3 / 48 KHz / 2.0 ch / 192 Kbps (коментарий режиссера)
Аудио 5: - Английский / AC3 / 48 KHz / 2.0 ch / 192 Kbps (коментарий Джереми Болта)
Субтитры вшитые softsub (SRT):
#1 - Русские Форсированные (включены по умолчанию)
#2 - English Full
#3 - English SDH
#4 - English Comments (P.Anderson)
#5 - English Comments (Jeremy Bolt)

MediaInfo

Общее
Уникальный идентификатор : 209009153501600373051011601585707951519 (0x9D3DB2E07DF395F38DEE533A0300259F)
Полное имя : E:\3Д фильмы\Resident Evil.Retribution(3D)2012.halfOU.1080p.AC3.Blu-ray CEE(m@rik05).mkv
Формат : Matroska
Версия формата : Version 2
Размер файла : 8,87 Гбайт
Продолжительность : 1 ч. 35 м.
Общий поток : 13,3 Мбит/сек
Название фильма : Resident Evil: Retribution (2012) 3D-RuGroup
Дата кодирования : UTC 2012-12-08 07:53:47
Программа кодирования : mkvmerge v5.8.0 ('No Sleep / Pillow') built on Sep 2 2012 15:37:04
Библиотека кодирования : libebml v1.2.3 + libmatroska v1.3.0
Видео
Идентификатор : 1
Формат : AVC
Формат/Информация : Advanced Video Codec
Профиль формата : High@L4.1
Параметр CABAC формата : Да
Параметр ReFrames формата : 4 кадра
Идентификатор кодека : V_MPEG4/ISO/AVC
Продолжительность : 1 ч. 35 м.
Битрейт : 10,7 Мбит/сек
Ширина : 1920 пикселей
Высота : 1080 пикселей
Соотношение сторон : 16:9
Режим частоты кадров : Постоянный
Частота кадров : 23,976 кадра/сек
Цветовое пространство : YUV
Субдискретизация насыщенности : 4:2:0
Битовая глубина : 8 бит
Тип развёртки : Прогрессивная
Бит/(Пиксели*Кадры) : 0.215
Размер потока : 7,16 Гбайт (81%)
Заголовок : rip by m@rik05
Библиотека кодирования : x264 core 116 r2074 2641b9e
Настройки программы : cabac=1 / ref=4 / deblock=1:-3:-3 / analyse=0x3:0x133 / me=umh / subme=9 / psy=1 / psy_rd=1.00:0.05 / mixed_ref=1 / me_range=16 / chroma_me=1 / trellis=2 / 8x8dct=1 / cqm=0 / deadzone=21,11 / fast_pskip=1 / chroma_qp_offset=-3 / threads=12 / sliced_threads=0 / nr=0 / decimate=1 / interlaced=0 / bluray_compat=0 / constrained_intra=0 / bframes=6 / b_pyramid=2 / b_adapt=2 / b_bias=0 / direct=3 / weightb=1 / open_gop=0 / weightp=2 / keyint=250 / keyint_min=23 / scenecut=40 / intra_refresh=0 / rc_lookahead=60 / rc=crf / mbtree=1 / crf=16.0 / qcomp=0.60 / qpmin=10 / qpmax=69 / qpstep=4 / vbv_maxrate=40000 / vbv_bufsize=40000 / crf_max=0.0 / nal_hrd=none / frame-packing=4 / ip_ratio=1.40 / aq=1:0.70
Язык : English
Default : Да
Forced : Нет
Аудио #1
Идентификатор : 2
Формат : AC-3
Формат/Информация : Audio Coding 3
Расширение режима : CM (complete main)
Параметр Endianness формата : Big
Идентификатор кодека : A_AC3
Продолжительность : 1 ч. 35 м.
Вид битрейта : Постоянный
Битрейт : 640 Кбит/сек
Каналы : 6 каналов
Расположение каналов : Front: L C R, Side: L R, LFE
Частота : 48,0 КГц
Битовая глубина : 16 бит
Метод сжатия : С потерями
Размер потока : 438 Мбайт (5%)
Заголовок : AC3 5.1 @ 640 kbps - Дублированный
Язык : Russian
Default : Да
Forced : Нет
Аудио #2
Идентификатор : 3
Формат : AC-3
Формат/Информация : Audio Coding 3
Расширение режима : CM (complete main)
Параметр Endianness формата : Big
Идентификатор кодека : A_AC3
Продолжительность : 1 ч. 35 м.
Вид битрейта : Постоянный
Битрейт : 640 Кбит/сек
Каналы : 6 каналов
Расположение каналов : Front: L C R, Side: L R, LFE
Частота : 48,0 КГц
Битовая глубина : 16 бит
Метод сжатия : С потерями
Размер потока : 438 Мбайт (5%)
Заголовок : AC3 5.1 @ 640 kbps - Дублированный
Язык : Ukrainian
Default : Нет
Forced : Нет
Аудио #3
Идентификатор : 4
Формат : AC-3
Формат/Информация : Audio Coding 3
Расширение режима : CM (complete main)
Параметр Endianness формата : Big
Идентификатор кодека : A_AC3
Продолжительность : 1 ч. 35 м.
Вид битрейта : Постоянный
Битрейт : 640 Кбит/сек
Каналы : 6 каналов
Расположение каналов : Front: L C R, Side: L R, LFE
Частота : 48,0 КГц
Битовая глубина : 16 бит
Метод сжатия : С потерями
Размер потока : 438 Мбайт (5%)
Заголовок : AC3 5.1 @ 640 kbps - Оригинальный
Язык : English
Default : Нет
Forced : Нет
Аудио #4
Идентификатор : 5
Формат : AC-3
Формат/Информация : Audio Coding 3
Профиль формата : Dolby Digital
Расширение режима : CM (complete main)
Параметр Endianness формата : Big
Идентификатор кодека : A_AC3
Продолжительность : 1 ч. 35 м.
Вид битрейта : Постоянный
Битрейт : 192 Кбит/сек
Каналы : 2 канала
Расположение каналов : Front: L R
Частота : 48,0 КГц
Битовая глубина : 16 бит
Метод сжатия : С потерями
Размер потока : 131 Мбайт (1%)
Заголовок : AC3 2.0 @ 192 kbps - коментарий режиссера
Язык : English
Default : Нет
Forced : Нет
Аудио #5
Идентификатор : 6
Формат : AC-3
Формат/Информация : Audio Coding 3
Профиль формата : Dolby Digital
Расширение режима : CM (complete main)
Параметр Endianness формата : Big
Идентификатор кодека : A_AC3
Продолжительность : 1 ч. 35 м.
Вид битрейта : Постоянный
Битрейт : 192 Кбит/сек
Каналы : 2 канала
Расположение каналов : Front: L R
Частота : 48,0 КГц
Битовая глубина : 16 бит
Метод сжатия : С потерями
Размер потока : 131 Мбайт (1%)
Заголовок : AC3 2.0 @ 192 kbps -коментарий Джереми Болта.
Язык : English
Default : Нет
Forced : Нет
Текст #1
Идентификатор : 7
Формат : UTF-8
Идентификатор кодека : S_TEXT/UTF8
Идентификатор кодека/Информация : UTF-8 Plain Text
Заголовок : Форсированные
Язык : Russian
Default : Да
Forced : Нет
Текст #2
Идентификатор : 8
Формат : UTF-8
Идентификатор кодека : S_TEXT/UTF8
Идентификатор кодека/Информация : UTF-8 Plain Text
Заголовок : Full
Язык : English
Default : Нет
Forced : Нет
Текст #3
Идентификатор : 9
Формат : UTF-8
Идентификатор кодека : S_TEXT/UTF8
Идентификатор кодека/Информация : UTF-8 Plain Text
Заголовок : SDH
Язык : English
Default : Нет
Forced : Нет
Текст #4
Идентификатор : 10
Формат : UTF-8
Идентификатор кодека : S_TEXT/UTF8
Идентификатор кодека/Информация : UTF-8 Plain Text
Заголовок : Comments P.Anderson
Язык : English
Default : Нет
Forced : Нет
Текст #5
Идентификатор : 11
Формат : UTF-8
Идентификатор кодека : S_TEXT/UTF8
Идентификатор кодека/Информация : UTF-8 Plain Text
Заголовок : Comments Jeremy Bolt
Язык : English
Default : Нет
Forced : Нет
Меню
00:00:00.000 : en:00:00:00.000
00:07:43.046 : en:00:07:43.046
00:14:32.538 : en:00:14:32.538
00:21:38.839 : en:00:21:38.839
00:25:39.329 : en:00:25:39.329
00:29:31.186 : en:00:29:31.186
00:34:16.846 : en:00:34:16.846
00:39:14.769 : en:00:39:14.769
00:45:29.435 : en:00:45:29.435
00:50:27.441 : en:00:50:27.441
00:54:42.070 : en:00:54:42.070
01:00:14.861 : en:01:00:14.861
01:05:38.476 : en:01:05:38.476
01:11:22.904 : en:01:11:22.904
01:16:15.571 : en:01:16:15.571
01:21:29.384 : en:01:21:29.384
Благодарности релизеру (196)

Торрент:

Статус:

Размер:

Зарегистрирован   [ 2012-12-08 13:28 ]

проверено

8.87 GB