Торренты   
 
 

 

Обитель зла: Возмездие / Resident Evil: Retribution [2012, BDrip, half1080p, Anamorph SideBySide]

Рейтинг 3D:
13 голосов
7.9
Рейтинг фильма:
14 голосов
5.1
 
Вы должны быть авторизированы,
чтобы ставить оценки


Обитель зла: Возмездие / Resident Evil: Retribution
Год выпуска: 2012
Страна: США, Германия, Канада
Жанр: Боевик, Фантастика, Ужасы, Триллер
Продолжительность: 01:35:38
Перевод: Профессиональный (полное дублирование)
Режиссер: Пол У. С. Андерсон
В ролях: Милла Йовович, Мишель Родригес, Сиенна Гиллори, Кевин Дюранд, Йохан Урб, Колин Сэмон, Ли Бинбин, Шон Робертс, Одед Фер, Спенсер Лок и др.
Описание: Смертельный T-вирус, созданный в лабораториях корпорации «Амбрелла», продолжает захватывать Землю, превращая мировое население в легионы пожирающих плоть зомби. Последняя надежда человечества, Элис, внедряется в самое сердце самой тайной исследовательской базы корпорации и узнает еще больше о собственном таинственном прошлом. Не имея путей к отступлению, Элис продолжает искать виновных в глобальной катастрофе. Вызов, который она принимала в Токио, Нью-Йорке, Вашингтоне и даже в Москве, приводит ее в итоге к взрывающему сознание откровению, которое заставит ее переосмыслить все, что она полагала правдой. С помощью новых союзников и старых друзей, Элис будет сражаться за выживание и убегать из враждебного мира. Отсчет времени начат…
Качество: BDrip by Alexman©
Формат 3D: Anamorph SideBySide / Горизонтальная анаморфная стереопара
Порядок ракурсов: левый ракурс первый
Видео: MPEG4 AVC, 9 279 Kbps, 1920x1080, 23.976 кадр/с
Аудио №1: Русский дублированный перевод / AC3 / 48 KHz / 5.1 ch / 640 Kbps
Аудио №2: Украинский дублированный перевод / AC3 / 48 KHz / 5.1 ch / 640 Kbps
Аудио №3: Английский оригинальный / AC3 / 48 KHz / 5.1 ch / 640 Kbps
Субтитры №1: Русские полные
Субтитры №2: Английские полные

MediaInfo

General
Unique ID : 218852590850428592261897289926338342437 (0xA4A579CEDA0AA9B1A85D19768EE2EE25)
Complete name : Resident Evil. Retribution [Обитель зла. Возмездие] (2012) DUB hSbS 1080p by Alexman©.mkv
Format : Matroska
Format version : Version 2
File size : 7.63 GiB
Duration : 1h 35mn
Overall bit rate : 11.4 Mbps
Movie name : Resident Evil: Retribution (2012) - HQ-ViDEO
Encoded date : UTC 2012-12-08 06:17:12
Writing application : mkvmerge v5.8.0 ('No Sleep / Pillow') built on Sep 2 2012 15:37:04
Writing library : libebml v1.2.3 + libmatroska v1.3.0
Video
ID : 1
Format : AVC
Format/Info : Advanced Video Codec
Format profile : High@L4.1
Format settings, CABAC : Yes
Format settings, ReFrames : 4 frames
Codec ID : V_MPEG4/ISO/AVC
Duration : 1h 35mn
Bit rate : 9 279 Kbps
Width : 1 920 pixels
Height : 1 080 pixels
Display aspect ratio : 16:9
Frame rate : 23.976 fps
Color space : YUV
Chroma subsampling : 4:2:0
Bit depth : 8 bits
Scan type : Progressive
Bits/(Pixel*Frame) : 0.187
Stream size : 6.20 GiB (81%)
Title : Resident Evil. Retribution [Обитель зла. Возмездие] (2012) DUB hSbS 1080p by Alexman©
Writing library : x264 core 129 r2230 1cffe9f
Encoding settings : cabac=1 / ref=4 / deblock=1:-3:-3 / analyse=0x3:0x113 / me=umh / subme=9 / psy=1 / psy_rd=1.00:0.15 / mixed_ref=1 / me_range=32 / chroma_me=1 / trellis=2 / 8x8dct=1 / cqm=0 / deadzone=21,11 / fast_pskip=1 / chroma_qp_offset=-3 / threads=4 / lookahead_threads=1 / sliced_threads=0 / nr=0 / decimate=1 / interlaced=0 / bluray_compat=0 / constrained_intra=0 / bframes=4 / b_pyramid=2 / b_adapt=2 / b_bias=0 / direct=3 / weightb=1 / open_gop=0 / weightp=2 / keyint=250 / keyint_min=23 / scenecut=40 / intra_refresh=0 / rc_lookahead=60 / rc=crf / mbtree=1 / crf=17.0 / qcomp=0.60 / qpmin=0 / qpmax=69 / qpstep=4 / vbv_maxrate=40000 / vbv_bufsize=40000 / crf_max=0.0 / nal_hrd=none / ip_ratio=1.40 / aq=1:0.70
Language : English
Default : Yes
Forced : No
Audio #1
ID : 2
Format : AC-3
Format/Info : Audio Coding 3
Mode extension : CM (complete main)
Codec ID : A_AC3
Duration : 1h 35mn
Bit rate mode : Constant
Bit rate : 640 Kbps
Channel(s) : 6 channels
Channel positions : Front: L C R, Side: L R, LFE
Sampling rate : 48.0 KHz
Bit depth : 16 bits
Compression mode : Lossy
Stream size : 438 MiB (6%)
Title : DUB@BD-EUR
Language : Russian
Default : Yes
Forced : Yes
Audio #2
ID : 3
Format : AC-3
Format/Info : Audio Coding 3
Mode extension : CM (complete main)
Codec ID : A_AC3
Duration : 1h 35mn
Bit rate mode : Constant
Bit rate : 640 Kbps
Channel(s) : 6 channels
Channel positions : Front: L C R, Side: L R, LFE
Sampling rate : 48.0 KHz
Bit depth : 16 bits
Compression mode : Lossy
Stream size : 438 MiB (6%)
Title : DUB@BD-EUR
Language : Ukrainian
Default : No
Forced : No
Audio #3
ID : 4
Format : AC-3
Format/Info : Audio Coding 3
Mode extension : CM (complete main)
Codec ID : A_AC3
Duration : 1h 35mn
Bit rate mode : Constant
Bit rate : 640 Kbps
Channel(s) : 6 channels
Channel positions : Front: L C R, Side: L R, LFE
Sampling rate : 48.0 KHz
Bit depth : 16 bits
Compression mode : Lossy
Stream size : 438 MiB (6%)
Title : Original
Language : English
Default : No
Forced : No
Text #1
ID : 5
Format : UTF-8
Codec ID : S_TEXT/UTF8
Codec ID/Info : UTF-8 Plain Text
Language : Russian
Default : No
Forced : No
Text #2
ID : 6
Format : UTF-8
Codec ID : S_TEXT/UTF8
Codec ID/Info : UTF-8 Plain Text
Language : English
Default : No
Forced : No

Скриншоты



Анимированные скриншоты для оценки 3Д-эффекта






Анаглифные скриншоты для оценки 3Д-эффекта




Проверено на ТВ Samsung 40C7000, Samsung 46D7000 и Philips 42PFL7606H
Благодарности релизеру (23)

Торрент:

Статус:

Размер:

Зарегистрирован   [ 2012-12-08 13:29 ]

проверено

7.63 GB

 
 Мнение о фильме (2)





блин незнаю фильм конечно не то что ниочень а просто непонятно вообще зачем они его сняли как всегда внеземные законы физики слабая игра актеров ну и сюжет серии блин даже можно назвать предысторию к следующей часте это 10 минутная история которую можно описать в 2х словах которую впихнули в полтора часа это как бежать со всех сил пол дня а пробежать 10 метров можно посмотреть только так для общего развития чтоб знать как евович попала с коробля в лабараторию по изучению вируса и в конце обратно получила вирус Т блин ну вот всю серию описал вобщем фанаты смотрите но ни на что особенное расчитывать не стоит только разачаруетесь все однообразно и скучно
 

Потерянное время. Не смог досмотреть. Редкостное г.