Торренты   
 
 

 

Амазонка / Südamerika: Faszination Amazonas / South America: Fascination Amazon [2012, BDrip, halfOU, Anamorph OverUnder]

Рейтинг 3D:
11 голосов
7.2
Рейтинг фильма:
11 голосов
7.7
 
Вы должны быть авторизированы,
чтобы ставить оценки


АмазонкаSüdamerika: Faszination AmazonasSouth America: Fascination Amazon- Год выпуска: 2012
Страна: Германия (Los Banditos Films, KSM)
Жанр: Документальный
Продолжительность: 00:58:01
Перевод: Одноголосый закадровый (BD3D)
Режиссеры: Timo Johannes Mayer, Benjamin Eicher
Описание: После Очарования коралловым рифом мы переносимся в русло Амазонки. Амазонка образуется из рек Мараньон и Укаяли, и занимает со своими притоками почти всю северную часть Южной Америки. Её истоки стекают с восточных склонов Анд (на западе Южной Америки) и впадает она в Атлантический океан (на востоке континента). Бассейн Амазонки занимает в общей сложности около 5,5 млн. кв. км (3,9 млн. кв. км из них в Бразилии). Амазонка является самой полноводной рекой в мире.
В настоящее время джунгли Амазонки подвергаются варварской незаконной вырубке.-Премьера: 17 сентября 2012
Релиз на DVD и Blu-Ray: 17-18 апреля 2013

-Качество: BDRip (by Ash61)
Контейнер: MKV
Формат 3D: Anamorph OverUnder / Вертикальная анаморфная стереопара
Порядок ракурсов: левый ракурс первый-Видео: AVC / 23,976 fps / 1920х1080p / 24,4 Mbps
Аудио:
#1 - Русский / AC3 / 48 KHz / 5.1 ch / 640 Kbps (VO - BD3D)
#2 - Английский / AC3 / 48 KHz / 5.1 ch / 640 Kbps
Субтитры: Отсутствуют

MediaInfo

General
Unique ID : 172139497801266986582515755450575455449 (0x8180DC80F4EE9628BFDE5BD2FA1D84D9)
Complete name : G:\Downloads\Sudamerika.FaszinationAmazonas(3D-halfOU)2012(Ash61).mkv
Format : Matroska
Format version : Version 2
File size : 10.6 GiB
Duration : 58mn 0s
Overall bit rate : 26.2 Mbps
Movie name : Амазонка / Südamerika: Faszination Amazonas (3D) 2012
Encoded date : UTC 2013-08-04 07:36:30
Writing application : mkvmerge v5.8.0 ('No Sleep / Pillow') built on Sep 2 2012 15:37:04
Writing library : libebml v1.2.3 + libmatroska v1.3.0
Video
ID : 1
Format : AVC
Format/Info : Advanced Video Codec
Format profile : High@L4.1
Format settings, CABAC : Yes
Format settings, ReFrames : 4 frames
Codec ID : V_MPEG4/ISO/AVC
Duration : 58mn 0s
Bit rate : 24.4 Mbps
Width : 1 920 pixels
Height : 1 080 pixels
Display aspect ratio : 16:9
Frame rate mode : Constant
Frame rate : 23.976 fps
Color space : YUV
Chroma subsampling : 4:2:0
Bit depth : 8 bits
Scan type : Progressive
Bits/(Pixel*Frame) : 0.490
Stream size : 9.87 GiB (93%)
Title : BDRip by Ash61
Writing library : x264 core 116 r2074 2641b9e
Encoding settings : cabac=1 / ref=4 / deblock=1:-1:-1 / analyse=0x3:0x113 / me=umh / subme=9 / psy=1 / psy_rd=1.00:0.15 / mixed_ref=1 / me_range=16 / chroma_me=1 / trellis=2 / 8x8dct=1 / cqm=0 / deadzone=21,11 / fast_pskip=1 / chroma_qp_offset=-3 / threads=12 / sliced_threads=0 / nr=0 / decimate=1 / interlaced=0 / bluray_compat=0 / constrained_intra=0 / bframes=6 / b_pyramid=2 / b_adapt=2 / b_bias=0 / direct=3 / weightb=1 / open_gop=0 / weightp=2 / keyint=250 / keyint_min=23 / scenecut=40 / intra_refresh=0 / rc_lookahead=60 / rc=crf / mbtree=1 / crf=18.0 / qcomp=0.70 / qpmin=10 / qpmax=51 / qpstep=4 / vbv_maxrate=40000 / vbv_bufsize=40000 / crf_max=0.0 / nal_hrd=none / frame-packing=4 / ip_ratio=1.40 / aq=1:0.70
Language : German
Default : Yes
Forced : No
Audio #1
ID : 2
Format : AC-3
Format/Info : Audio Coding 3
Mode extension : CM (complete main)
Format settings, Endianness : Big
Codec ID : A_AC3
Duration : 58mn 0s
Bit rate mode : Constant
Bit rate : 640 Kbps
Channel(s) : 6 channels
Channel positions : Front: L C R, Side: L R, LFE
Sampling rate : 48.0 KHz
Bit depth : 16 bits
Compression mode : Lossy
Stream size : 266 MiB (2%)
Title : Одноголосый закадровый - BD3D
Language : Russian
Default : Yes
Forced : No
Audio #2
ID : 3
Format : AC-3
Format/Info : Audio Coding 3
Mode extension : CM (complete main)
Format settings, Endianness : Big
Codec ID : A_AC3
Duration : 58mn 0s
Bit rate mode : Constant
Bit rate : 640 Kbps
Channel(s) : 6 channels
Channel positions : Front: L C R, Side: L R, LFE
Sampling rate : 48.0 KHz
Bit depth : 16 bits
Compression mode : Lossy
Stream size : 266 MiB (2%)
Language : English
Default : No
Forced : No
Menu
00:00:00.000 : :1
00:03:00.722 : :2
00:08:19.332 : :3
00:15:53.077 : :4
00:23:26.113 : :5
00:32:29.865 : :6
00:48:40.459 : :7
00:55:41.421 : :8

Для оценки качества 3д: Анимация

Для оценки качества 3д: Ч-б анаглиф

4.08.2013 - Релиз обновлён - добавлена русская дорога.
Желающие, скачайте заново торрент-файл.
Благодарности релизеру (31)

Торрент:

Статус:

Размер:

Зарегистрирован   [ 2013-08-04 13:09 ]

проверено

10.6 GB

 
 Мнение о фильме (7)





спасибо огромное,очень понравилось.
 

Красотища ! Всё просто супер! Как побывал на Амазонке сам . Всем огромное спасибо.
 

Большое спасибо Саша!!!
 

Саша,приятный фильм ! И настоящий 3Д,и СПС за русскую дорожку !
 

все хорошо! спасибо!
 

вся семья была в восторге!!спасибо!
 

смотрели отрывками,но качество как всегда на высоте спасибо большое