Торренты   
 
 

 

Вселенная (Сезон 6, Эпизоды 1 - 3) / The Universe (S06, E01 - E03) [2011, BDrip, half1080p, Anamorph OverUnder]

Рейтинг 3D:
36 голосов
8.4
Рейтинг фильма:
35 голосов
8.4
 
Вы должны быть авторизированы,
чтобы ставить оценки


Вселенная (Сезон 6, Эпизоды 1 - 3)
The Universe (S06, E01 - E03)
Год выпуска: 2011
Страна: США (History Channel, A&E Television Networks)
Жанр: Документальный, Сериал
Продолжительность (суммарная): 02:12:06
Перевод: Профессиональный одноголосый закадровый (Лицензия [Кармен Видео])
Режиссеры: Laura Verklan, Douglas J. Cohen, Darryl Rehr
Научный консультант: Алекс Филиппенко
Эксперты в фильме: Алекс Филиппенко, Laura Danly, Нил Тайсон, Клиффорд Джонсон, Роб Рой Бритт, Amy Mainzer, Доктор Кевин Р. Грейзер, Greg Laughlin, Michelle Thaller-Описание: В этом сериале с помощью современной компьютерной графики и, основываясь на передовых исследованиях в области космоса, создатели фильма смогли воссоздать то, что происходит на других планетах, в других галактиках, вообразить какие формы жизни могли бы развиться в других атмосферах. Вы сможете увидеть космические бедствия, параллельные вселенные и узнать многое другое о тайнах космоса.Серии:1. Катастрофы, которые изменили планеты (Катастрофы в далеких мирах)
Catastrophes that Changed the Planets
(S06E01) (25.10.2011г.) (00:44:02)
Планеты Солнечной системы испытали на себе множество потрясений, сильнейшие катаклизмы воздействовали на них в течение миллионов лет. Мы вернемся в прошлое, чтобы понять, почему планеты выглядят сейчас именно так, а не иначе, где берет начало их длинный путь. Почему Марс превратился в бесплодную пустыню, а Венера похожа на наши представления об аде? Из-за чего мантия Меркурия превратилась в его собственное ядро, и как утерянная луна объясняет наличие колец у Сатурна? Все это и многое другое - в одной из фильмов цикла "Вселенная"2. Немезида: Злой двойник Солнца (Немезида - двойник Солнца)
Nemesis: The Sun's Evil Twin
(S06E02) (1.11.2011г.) (00:44:02)
В погоне за Немезидой, новые научные исследования добрались до самых краев нашей Солнечной системы. Может ли эта громадная звезда вращаться вокруг Солнца, рассылая комет-убийц каждые 26 миллионов лет? Подтвердятся ли догадки ученых, стоящих на пороге одного из крупнейших открытий в истории? Герои фильма начинают пожар на иссушенном солнцем склоне в Калифорнии, жонглируют огнем и проводят другие эксперименты, чтобы показать как работает Немезида, и почему жизнь на Земле может зависеть от её открытия.3. Как образовалась Солнечная система (Рождение Солнечной системы)
How the Solar System was Made
(S06E03) (8.11.2011г.) (00:44:02)
Вот уже четыре с половиной миллиарда лет Солнечная система является нашим домом во Вселенной. Откуда она появилась? В этом эпизоде мы проследим, что происходило с ней с момента появления в пространстве тонкого облака из пыли и газа. После взрыва сверхновой звезды сила тяжести и естественное вращение сформировали из этого облака плоский диск, из которого в последствии выкристаллизовались Солнце и планеты. Все происходило в космическом пространстве в течение 700 лет. За это время планеты боролись за свои позиции, уклоняясь от жестокой бомбардировки астероидами и организовывая аккуратную, стабильную систему, которая, как мы теперь понимаем, может быть редкостью во Вселенной.- . . .
За исходники русских дорог спасибо и mebelrus!
-Качество: BDRip (by Ash61)
Контейнер: MKV
Формат 3D: Half OverUnder / Вертикальная анаморфная стереопара
Порядок ракурсов: левый ракурс первый
Видео кодек: x264
Аудио кодек: AC3-Видео: AVC / 23,976 fps / 1920х1080p / 11,9 Mbps; 16,1 Mbps; 14,2 Mbps
Аудио:
#1 - Русский / AC3 / 48 KHz / 5.1 ch / 640 Kbps (VO - BD 3D Rus)
#2 - Английский / AC3 / 48 KHz / 5.1 ch / 640 Kbps (Original - BD 3D)
Субтитры: Внешние (SRT UTF-8) Русские Полные

MediaInfo первого файла (остальные отличаются только битрейтом видео)

General
Unique ID : 205932972237551751818745956441925924206 (0x9AED3F6E4E83B344B29DAE6EC6D0B56E)
Complete name : E:\TheUniverse(S06E01-03)(2011)3D-halfOU(Ash61)Lic\TheUniverse(S06E01)CatastrophesThatChangedThePlanets(2011)3D-halfOU(Ash61).mkv
Format : Matroska
Format version : Version 2
File size : 4.13 GiB
Duration : 44mn 2s
Overall bit rate : 13.4 Mbps
Movie name : Вселенная: Катастрофы, которые изменили планеты / The Universe: Catastrophes that Changed the Planets (S06E01) (2011) 3D
Encoded date : UTC 2014-01-21 17:42:38
Writing application : mkvmerge v5.8.0 ('No Sleep / Pillow') built on Sep 2 2012 15:37:04
Writing library : libebml v1.2.3 + libmatroska v1.3.0
Video
ID : 1
Format : AVC
Format/Info : Advanced Video Codec
Format profile : High@L4.1
Format settings, CABAC : Yes
Format settings, ReFrames : 4 frames
Codec ID : V_MPEG4/ISO/AVC
Duration : 44mn 2s
Bit rate : 11.9 Mbps
Width : 1 920 pixels
Height : 1 080 pixels
Display aspect ratio : 16:9
Frame rate mode : Constant
Frame rate : 23.976 fps
Color space : YUV
Chroma subsampling : 4:2:0
Bit depth : 8 bits
Scan type : Progressive
Bits/(Pixel*Frame) : 0.239
Stream size : 3.65 GiB (88%)
Title : BDrip by Ash61
Writing library : x264 core 119 r2106 07efeb4
Encoding settings : cabac=1 / ref=4 / deblock=1:-3:-3 / analyse=0x3:0x113 / me=umh / subme=9 / psy=1 / psy_rd=1.00:0.15 / mixed_ref=1 / me_range=32 / chroma_me=1 / trellis=2 / 8x8dct=1 / cqm=0 / deadzone=21,11 / fast_pskip=1 / chroma_qp_offset=-3 / threads=12 / sliced_threads=0 / nr=0 / decimate=1 / interlaced=0 / bluray_compat=0 / constrained_intra=0 / bframes=6 / b_pyramid=2 / b_adapt=2 / b_bias=0 / direct=3 / weightb=1 / open_gop=0 / weightp=2 / keyint=250 / keyint_min=23 / scenecut=40 / intra_refresh=0 / rc_lookahead=60 / rc=crf / mbtree=1 / crf=18.0 / qcomp=0.70 / qpmin=10 / qpmax=51 / qpstep=4 / vbv_maxrate=40000 / vbv_bufsize=30000 / crf_max=0.0 / nal_hrd=none / frame-packing=4 / ip_ratio=1.40 / aq=1:0.70
Language : English
Default : Yes
Forced : No
Audio #1
ID : 2
Format : AC-3
Format/Info : Audio Coding 3
Mode extension : CM (complete main)
Format settings, Endianness : Big
Codec ID : A_AC3
Duration : 44mn 2s
Bit rate mode : Constant
Bit rate : 640 Kbps
Channel(s) : 6 channels
Channel positions : Front: L C R, Side: L R, LFE
Sampling rate : 48.0 KHz
Bit depth : 16 bits
Compression mode : Lossy
Stream size : 202 MiB (5%)
Title : Одноголосый закадровый - BD 3D Rus
Language : Russian
Default : Yes
Forced : No
Audio #2
ID : 3
Format : AC-3
Format/Info : Audio Coding 3
Mode extension : CM (complete main)
Format settings, Endianness : Big
Codec ID : A_AC3
Duration : 44mn 2s
Bit rate mode : Constant
Bit rate : 640 Kbps
Channel(s) : 6 channels
Channel positions : Front: L C R, Side: L R, LFE
Sampling rate : 48.0 KHz
Bit depth : 16 bits
Compression mode : Lossy
Stream size : 202 MiB (5%)
Title : Original
Language : English
Default : No
Forced : No
Menu
00:00:00.000 : :1
00:01:39.725 : :2
00:11:31.024 : :3
00:23:01.255 : :4
00:30:35.459 : :5
00:36:35.527 : :6

Для оценки 3Д - Анимированные скрины





















22.01.2014. Релиз обновлён - прежние русские дороги заменены на лицензионные.
Желающие, скачайте заново торрент-файл.
Благодарности релизеру (72)

Торрент:

Статус:

Размер:

Зарегистрирован   [ 2014-01-23 07:17 ]

проверено

14.43 GB