Торренты   
 
 

 

Багамские острова: Таинственные пещеры и затонувшие корабли / Abenteuer Bahamas: Mysteriöse Höhlen und Wracks / Adventure Bahamas: Mysterious Caves and Wrecks [2012, BDrip, half1080p, Anamorph OverUnder]

Рейтинг 3D:
24 голосов
8.2
Рейтинг фильма:
24 голосов
7.9
 
Вы должны быть авторизированы,
чтобы ставить оценки


Багамские острова: Таинственные пещеры и затонувшие кораблиAbenteuer Bahamas: Mysteriöse Höhlen und WracksAdventure Bahamas: Mysterious Caves and Wrecks- Год выпуска: 2012
Страна: Германия (New KSM)
Жанр: Документальный
Продолжительность: 00:52:32
Перевод: Одноголосый закадровый (BD3D)
Продюсер: Benjamin Krause
Режиссер: Jürgen Klimmeck
Описание: Багамские острова давно стали синонимом удивительных и загадочных приключений. Живописный архипелаг в Атлантическом океане между Кубой и Флоридой, насчитывающий около 2500 рифов и 700 островов, давно стал настоящей Меккой для любителей экстремального дайвинга. Уникальные съемки красот подводного мира, древних пещер и затонувших кораблей, откроют все тайны океана истинным любителям морских глубин.-Релиз на DVD и Blu-Ray: 26-27 июня 2013
-Качество: BDRip (by Ash61)
Контейнер: MKV
Формат 3D: Anamorph OverUnder / Вертикальная анаморфная стереопара
Порядок ракурсов: левый ракурс первый-Видео: AVC / 23,976 fps / 1920х1080p / 15,8 Mbps
Аудио:
#1 - Русский / AC3 / 48 KHz / 5.1 ch / 640 Kbps (VO - BD3D)
#2 - Английский / AC3 / 48 KHz / 5.1 ch / 640 Kbps
Субтитры: Отсутствуют

MediaInfo

General
Unique ID : 176331179411861209918500571608454853259 (0x84A8265CF3D52D86B86DF2B680D0F28B)
Complete name : G:\Downloads\AbenteuerBahamas(3D-halfOU)2012(Ash61).mkv
Format : Matroska
Format version : Version 2
File size : 6.41 GiB
Duration : 52mn 33s
Overall bit rate : 17.5 Mbps
Movie name : Багамские острова: Таинственные пещеры и затонувшие корабли / Abenteuer Bahamas: Mysteriöse Höhlen und Wracks (3D) 2012
Encoded date : UTC 2013-08-02 17:37:53
Writing application : mkvmerge v5.8.0 ('No Sleep / Pillow') built on Sep 2 2012 15:37:04
Writing library : libebml v1.2.3 + libmatroska v1.3.0
Video
ID : 1
Format : AVC
Format/Info : Advanced Video Codec
Format profile : High@L4.1
Format settings, CABAC : Yes
Format settings, ReFrames : 4 frames
Codec ID : V_MPEG4/ISO/AVC
Duration : 52mn 33s
Bit rate : 15.8 Mbps
Width : 1 920 pixels
Height : 1 080 pixels
Display aspect ratio : 16:9
Frame rate mode : Constant
Frame rate : 23.976 fps
Color space : YUV
Chroma subsampling : 4:2:0
Bit depth : 8 bits
Scan type : Progressive
Bits/(Pixel*Frame) : 0.318
Stream size : 5.81 GiB (91%)
Title : BDRip by Ash61
Writing library : x264 core 119 r2106 07efeb4
Encoding settings : cabac=1 / ref=4 / deblock=1:-3:-3 / analyse=0x3:0x113 / me=umh / subme=9 / psy=1 / psy_rd=1.00:0.15 / mixed_ref=1 / me_range=32 / chroma_me=1 / trellis=2 / 8x8dct=1 / cqm=0 / deadzone=21,11 / fast_pskip=1 / chroma_qp_offset=-3 / threads=12 / sliced_threads=0 / nr=0 / decimate=1 / interlaced=0 / bluray_compat=0 / constrained_intra=0 / bframes=6 / b_pyramid=2 / b_adapt=2 / b_bias=0 / direct=3 / weightb=1 / open_gop=0 / weightp=2 / keyint=250 / keyint_min=23 / scenecut=40 / intra_refresh=0 / rc_lookahead=60 / rc=crf / mbtree=1 / crf=18.0 / qcomp=0.70 / qpmin=10 / qpmax=51 / qpstep=4 / vbv_maxrate=40000 / vbv_bufsize=30000 / crf_max=0.0 / nal_hrd=none / frame-packing=4 / ip_ratio=1.40 / aq=1:0.70
Language : German
Default : Yes
Forced : No
Audio #1
ID : 2
Format : AC-3
Format/Info : Audio Coding 3
Mode extension : CM (complete main)
Format settings, Endianness : Big
Codec ID : A_AC3
Duration : 52mn 33s
Bit rate mode : Constant
Bit rate : 640 Kbps
Channel(s) : 6 channels
Channel positions : Front: L C R, Side: L R, LFE
Sampling rate : 48.0 KHz
Bit depth : 16 bits
Compression mode : Lossy
Stream size : 241 MiB (4%)
Title : Одноголосый закадровый - BD3D
Language : Russian
Default : Yes
Forced : No
Audio #2
ID : 3
Format : AC-3
Format/Info : Audio Coding 3
Mode extension : CM (complete main)
Format settings, Endianness : Big
Codec ID : A_AC3
Duration : 52mn 33s
Bit rate mode : Constant
Bit rate : 640 Kbps
Channel(s) : 6 channels
Channel positions : Front: L C R, Side: L R, LFE
Sampling rate : 48.0 KHz
Bit depth : 16 bits
Compression mode : Lossy
Stream size : 241 MiB (4%)
Language : English
Default : No
Forced : No
Menu
00:00:00.000 : :1
00:19:46.685 : :2
00:25:57.890 : :3
00:37:55.231 : :4
00:51:53.861 : :5

Для оценки качества 3д - Анимированные скрины

2.08.2013 - Релиз обновлён - добавлена русская дорога.
Желающие, скачайте заново торрент-файл.
Остальные раздачи этого фильма (2)
Благодарности релизеру (39)

Торрент:

Статус:

Размер:

Зарегистрирован   [ 2013-08-02 23:08 ]

проверено

6.41 GB

 
 Мнение о фильме (10)





Глубина картинки хорошая. Вот бы перевод еще.
 

+1
 

Глубина картинки хорошая. Вот бы перевод еще.
Ура! Дождались!
 

Немцы на высоте.Студия (New KSM) снимает качественное3D
 

Супер! Спасибо! Почти на час полностью погрузился в подводный мир...особенно великолепны крупные виды рыб в подводных пещерах! Перевод хороший...в общем всем рекомендую :)
 

Мое мнение такое - стандартный фильм, стандартные и уже поднадоевшие подводные съемки. 3D вполне приемлемо. Я даже и смотреть до конца не стал... Их, подобных фильмов, у мя куча. Да, озвучка хорошая.
 

так если поднадоели - НЕ КАЧАЙ!!
 

Фильм очень даже неплохой посмотрел с наслаждением хорошее 3д хороший звук всем советую посмотреть!!!
 

Спасибо за прекрасный фильм! Замечательный 3D, качественная озвучка, интересные комментарии.
 

Хороший фильм. Вовсе не ординарный. Совершенно отличный от Красноморского подводный мир. Приятная музыка, создающая атмосферу (если можно так выразиться про подводный мир). Неторопливый монтаж, позволяющий рассмотреть детали и окружающую обстановку. Отличная 3D глубина, но не без косяков: кое где балуются с параллаксами, кое где рассинхрончик. В пещерах - всё бесподобно. Мало кому посчастливится наблюдать подобное воочую. Высокие оценки заслужены. И благодарность автору. )