Торренты   
 
 


Трейлер Хоббит: Нежданное путешествие в 3Д/ Trailer The Hobbit: An Unexpected Journey in 3D[2012 г., DCPrip Anamorph OverUnder]

Рейтинг 3D:
7 голосов
4.9
Рейтинг фильма:
2 голосов
9.5
 
Вы должны быть авторизированы,
чтобы ставить оценки


Трейлер Хоббит: Нежданное путешествие в 3Д
Trailer The Hobbit: An Unexpected Journey in 3D
--Год выпуска: 2012
Страна: США, Новая Зеландия
Жанр: фэнтези, приключения
Продолжительность: 00:02:24--Описание: Фильм повествует о путешествии Бильбо Бэггинса, который пускается в грандиозный поход, целью которого является отвоевание утраченного королевства гномов Эребор у зловещего дракона Смога. Совершенно неожиданно с хоббитом налаживает контакт волшебник Гэндальф Серый. Так Бильбо находит себя, присоединяясь к компании тринадцати гномов, возглавляемых легендарным воином, Торином Дубощитом. Их путешествие проляжет через Дикий Край, через предательские земли, населенные гоблинами и орками, смертоносными варгами и гигантскими пауками, народом, меняющим шкуры, и волшебниками.
И хотя их цель находится на Востоке среди пустошей Одинокой Горы, сначала им придется выбраться из туннелей гоблинов, где Бильбо встретит существо, которое изменит его жизнь навсегда… Голлума.
Здесь, один на один с Голлумом, на берегу подземного озера, непритязательный Бильбо Бэггинс обнаружит не только скрытые в глубине души хитрость и отвагу, которые удивят даже его, но и завладеет «прелестным» колечком Голлума, которое обладает нежданными и полезными свойствами… Простое золотое кольцо, c которым связана судьба всего Средиземья, нитями, о которых Бильбо не мог даже вообразить.--Формат 3d: Anamorph OverUnder (левый ракурс верхний)
Качество: DCPRip
Контейнер: mkv
Видео: AVC / 1920х1080p / 24.000 fps / 11.7 Mbps
Аудио: Русский / AC3 / 6 ch / 448 Kbps / 48 KHz--

MediaInfo:

Код:
General
Unique ID                      : 213278145617634743105272819520093083848 (0xA073E07040A8F117951717076354D8C8)
Complete name                  : L:\_3D\3D-Trailers\_2012\Trailer_TheHobbitAnUnexpectedJourney(3D)HalfOU-abq.mkv
Format                         : Matroska
Format version                 : Version 2
File size                      : 214 MiB
Duration                       : 2mn 24s
Overall bit rate               : 12.4 Mbps
Encoded date                   : UTC 2012-12-03 18:30:56
Writing application            : mkvmerge v4.0.0 ('The Stars were mine') сборка от Jun  6 2010 16:18:42
Writing library                : libebml v1.0.0 + libmatroska v1.0.0
Video
ID                             : 1
Format                         : AVC
Format/Info                    : Advanced Video Codec
Format profile                 : High@L4.1
Format settings, CABAC         : Yes
Format settings, ReFrames      : 4 frames
Codec ID                       : V_MPEG4/ISO/AVC
Duration                       : 2mn 24s
Bit rate                       : 11.7 Mbps
Width                          : 1 920 pixels
Height                         : 1 080 pixels
Display aspect ratio           : 16:9
Frame rate                     : 24.000 fps
Color space                    : YUV
Chroma subsampling             : 4:2:0
Bit depth                      : 8 bits
Scan type                      : Progressive
Bits/(Pixel*Frame)             : 0.235
Stream size                    : 202 MiB (94%)
Writing library                : x264 core 116 r2074 2641b9e
Encoding settings              : cabac=1 / ref=4 / deblock=1:-3:-3 / analyse=0x3:0x113 / me=umh / subme=9 / psy=1 / psy_rd=1.00:0.15 / mixed_ref=1 / me_range=16 / chroma_me=1 / trellis=2 / 8x8dct=1 / cqm=0 / deadzone=21,11 / fast_pskip=1 / chroma_qp_offset=-3 / threads=6 / sliced_threads=0 / nr=0 / decimate=1 / interlaced=0 / bluray_compat=0 / constrained_intra=0 / bframes=6 / b_pyramid=2 / b_adapt=2 / b_bias=0 / direct=3 / weightb=1 / open_gop=0 / weightp=2 / keyint=240 / keyint_min=24 / scenecut=40 / intra_refresh=0 / rc_lookahead=60 / rc=crf / mbtree=1 / crf=18.0 / qcomp=0.60 / qpmin=0 / qpmax=69 / qpstep=4 / vbv_maxrate=40000 / vbv_bufsize=40000 / crf_max=0.0 / nal_hrd=none / frame-packing=4 / ip_ratio=1.40 / aq=1:0.70
Language                       : English
Default                        : No
Forced                         : No
Audio
ID                             : 2
Format                         : AC-3
Format/Info                    : Audio Coding 3
Mode extension                 : CM (complete main)
Format settings, Endianness    : Big
Codec ID                       : A_AC3
Duration                       : 2mn 24s
Bit rate mode                  : Constant
Bit rate                       : 448 Kbps
Channel(s)                     : 6 channels
Channel positions              : Front: L C R, Side: L R, LFE
Sampling rate                  : 48.0 KHz
Bit depth                      : 16 bits
Compression mode               : Lossy
Stream size                    : 7.72 MiB (4%)
Language                       : Russian
Default                        : Yes
Forced                         : No

Скриншоты

Благодарности релизеру (19)

Торрент:

Статус:

Размер:

Зарегистрирован   [ 2012-12-12 23:15 ]

проверено

214 MB

 
 Мнение о фильме (10)





Ух ты, порция трейлеров. Хоббиты что то не впечатлили по 3Д, оно там для галочки, ниже среднего "плоскодонка", смотрится как конвертация, единственно один вылет был далеко и страшно (неожиданно).
 

интересно дойдет ли до нас 48Гц версия?
 

Дошла уже.) А трейлера в HFR ни у кого нет? Хотелось бы перед просмотром заценить..
 

хотелось бы посмотреть трейлер в 48 кадров
 

когда фильм будет
 

"Хоббит: неожиданное путешествие" HFR 3D, 48 кадров в секунду
Ссылка на трейлер "Хоббита" в 48 fps
http://www.48fpsmovies.com/The_Hobbi...ey_Trailer.mp4
 

cookerst
Там не 48fps, а 59.940fps. Сдаётся мне сделан он из обычного 24fps с использованием SVP.
 

Интересно, а на Blu-ray 3D диске фильм выйдет с какой частотой кадров 24 или 48 и вообще поддерживает ли формат Blu-ray 3D 48 кадров в секунду
 

сейчас заценим, но в нашем новом аймексе мутный и двоения на заднем плане...может конечно отмазон для чайников, но суть в том что типо съемка велась в увеличеной частоте кадров и в какомто супер разрешение, и замылевание с двоением следствие двойного конверта...но такие высказывание представителей новооткрывшегося кинотреатра смахавают на развод какойто...
 

Не понравилось