Торренты   
 
 

 

Шевели ластами 2 / Sammy's avonturen 2 [2012 г., BDrip, Anamorph OverUnder]

Рейтинг 3D:
116 голосов
9.2
Рейтинг фильма:
106 голосов
7.7
 
Вы должны быть авторизированы,
чтобы ставить оценки


Шевели ластами 2 / Sammy's avonturen 2
Год выпуска: 2012
Страна: Бельгия
Жанр: мультфильм, приключения
Продолжительность: 01:32:51
Перевод: Профессиональный (дублированный)
Русские субтитры: есть
Режиссер: Бен Стассен / Ben Stassen
Сценарий: Домоник Парис
Продюсер: Джина Галло, Мими Мэйнард
Композитор: Рамин Джавади
Художник: Винсент Кестелут
Роли озвучивали:
Билли Ангер, Пэт Кэрролл, Карлос МакКаллерс II, Синда Адамс, Дино Андраде, Крис Эндрю Кулла, Изабель Фурман, Уэсли Джонни, Силье Рейномо, Дуглас Райан Рот и др.
Роли дублировали:
Кирилл Туранский, Наталья Терешкова, Пётр Иващенко, Анна Денисова и др.
Описание:
Верные друзья навсегда, черепахи Сэмми и Рей, наслаждаются размеренной жизнью вблизи океана, а также присматривают за только что вылупившимися Рикки и Эллой. Внезапно, браконьер хватает больших черепах, они нужны ему для захватывающего морского шоу в Дубае. Центральная фигура шоу, морской конёк Большой Ди, посвящает новичков в свои планы на грандиозный побег.
Но, когда маленькие Рикки и Элла прибывают, чтобы спасти «дедушек», планы черепах и их новых друзей: пучеглазой рыбки Джимбо, осьминога Анабель, омара и большой семьи пингвинов, меняются. После ряда волнующих приключений и побегов, наши герои направляются на юг, чтобы встретиться с Шелли, первой и единственной любовью Сэмми.
--Релиз группы:

Премьера: 2 августа 2012 (16 августа 2012)


Проверено на встроенном плейере ТВ LG 42LW4500
--
Качество: BDrip by StarStranger
Контейнер: MKV
Формат 3D: Anamorph OverUnder / Вертикальная анаморфная стереопара
Порядок ракурсов: левый ракурс первый
Видео кодек: x264
Аудио кодек: AC3
Видео: AVC / 23,976 fps / 1920х1080p / 9684 Kbps
Аудио:
Русский / AC3 / 48 KHz / 5.1 ch / 640 Kbps
Украинский / AC3 / 48 KHz / 5.1 ch / 448 Kbps
Английский / AC3 / 48 KHz / 5.1 ch / 640 Kbps
Субтитры: русские

MediaInfo

Код:
Общее
Уникальный идентификатор                 : 227839548161506142398734920280074546635 (0xAB684D035347B386BC5BCB8EB44AEDCB)
Полное имя                               : H:\Sammy'sAvonturen.2.EscapeFromParadise.3D.2012.BD3DRip.Half.OU.x264.AC3.3D-RuGroup.mkv
Формат                                   : Matroska
Версия формата                           : Version 2
Размер файла                             : 7,54 Гбайт
Продолжительность                        : 1 ч. 32 м.
Общий поток                              : 11,6 Мбит/сек
Название фильма                          : Sammy's avonturen 2 Escape from Paradise 3D release 3D-RuGroup rip by StarStranger aka itsamna
Дата кодирования                         : UTC 2013-04-02 16:14:51
Программа кодирования                    : mkvmerge v3.4.0 ('Rapunzel') сборка от May 15 2010 09:38:20
Библиотека кодирования                   : libebml v0.8.0 + libmatroska v0.9.0
Видео
Идентификатор                            : 1
Формат                                   : AVC
Формат/Информация                        : Advanced Video Codec
Профиль формата                          : High@L4.1
Параметр CABAC формата                   : Да
Параметр ReFrames формата                : 4 кадра
Идентификатор кодека                     : V_MPEG4/ISO/AVC
Продолжительность                        : 1 ч. 32 м.
Битрейт                                  : 9670 Кбит/сек
Ширина                                   : 1920 пикселей
Высота                                   : 1080 пикселей
Соотношение сторон                       : 16:9
Режим частоты кадров                     : Постоянный
Частота кадров                           : 23,976 кадра/сек
Цветовое пространство                    : YUV
Субдискретизация насыщенности            : 4:2:0
Битовая глубина                          : 8 бит
Тип развёртки                            : Прогрессивная
Бит/(Пиксели*Кадры)                      : 0.195
Размер потока                            : 6,27 Гбайт (83%)
Заголовок                                : rip by StarStranger aka itsamna
Библиотека кодирования                   : x264 core 128 r2216 198a7ea
Настройки программы                      : cabac=1 / ref=4 / deblock=1:-3:-3 / analyse=0x3:0x133 / me=umh / subme=10 / psy=1 / psy_rd=1.00:0.15 / mixed_ref=1 / me_range=48 / chroma_me=1 / trellis=2 / 8x8dct=1 / cqm=0 / deadzone=21,11 / fast_pskip=0 / chroma_qp_offset=-3 / threads=3 / lookahead_threads=1 / sliced_threads=0 / nr=0 / decimate=1 / interlaced=0 / bluray_compat=0 / constrained_intra=0 / bframes=8 / b_pyramid=2 / b_adapt=2 / b_bias=0 / direct=3 / weightb=1 / open_gop=0 / weightp=2 / keyint=250 / keyint_min=23 / scenecut=40 / intra_refresh=0 / rc_lookahead=60 / rc=crf / mbtree=1 / crf=17.0 / qcomp=0.70 / qpmin=0 / qpmax=69 / qpstep=4 / vbv_maxrate=50000 / vbv_bufsize=50000 / crf_max=0.0 / nal_hrd=none / ip_ratio=1.40 / aq=1:0.90
Default                                  : Нет
Forced                                   : Нет
Аудио #1
Идентификатор                            : 2
Формат                                   : AC-3
Формат/Информация                        : Audio Coding 3
Расширение режима                        : CM (complete main)
Параметр Endianness формата              : Big
Идентификатор кодека                     : A_AC3
Продолжительность                        : 1 ч. 32 м.
Вид битрейта                             : Постоянный
Битрейт                                  : 640 Кбит/сек
Каналы                                   : 6 каналов
Расположение каналов                     : Front: L C R, Side: L R, LFE
Частота                                  : 48,0 КГц
Битовая глубина                          : 16 бит
Метод сжатия                             : С потерями
Размер потока                            : 425 Мбайт (6%)
Заголовок                                : Дубляж
Язык                                     : Russian
Default                                  : Нет
Forced                                   : Нет
Аудио #2
Идентификатор                            : 3
Формат                                   : AC-3
Формат/Информация                        : Audio Coding 3
Расширение режима                        : CM (complete main)
Параметр Endianness формата              : Big
Идентификатор кодека                     : A_AC3
Продолжительность                        : 1 ч. 32 м.
Вид битрейта                             : Постоянный
Битрейт                                  : 448 Кбит/сек
Каналы                                   : 6 каналов
Расположение каналов                     : Front: L C R, Side: L R, LFE
Частота                                  : 48,0 КГц
Битовая глубина                          : 16 бит
Метод сжатия                             : С потерями
Размер потока                            : 298 Мбайт (4%)
Заголовок                                : Дубляж
Язык                                     : Ukrainian
Default                                  : Нет
Forced                                   : Нет
Аудио #3
Идентификатор                            : 4
Формат                                   : AC-3
Формат/Информация                        : Audio Coding 3
Расширение режима                        : CM (complete main)
Параметр Endianness формата              : Big
Идентификатор кодека                     : A_AC3
Продолжительность                        : 1 ч. 32 м.
Вид битрейта                             : Постоянный
Битрейт                                  : 640 Кбит/сек
Каналы                                   : 6 каналов
Расположение каналов                     : Front: L C R, Side: L R, LFE
Частота                                  : 48,0 КГц
Битовая глубина                          : 16 бит
Метод сжатия                             : С потерями
Размер потока                            : 425 Мбайт (6%)
Язык                                     : English
Default                                  : Нет
Forced                                   : Нет
Текст
Идентификатор                            : 5
Формат                                   : UTF-8
Идентификатор кодека                     : S_TEXT/UTF8
Идентификатор кодека/Информация          : UTF-8 Plain Text
Заголовок                                : Full
Язык                                     : Russian
Default                                  : Нет
Forced                                   : Нет
Меню
00:00:00.000                             : :1
00:12:09.854                             : :2
00:21:48.224                             : :3
00:34:51.548                             : :4
00:45:52.375                             : :5
00:57:20.687                             : :6
01:07:48.189                             : :7
01:20:06.260                             : :8

Скриншоты

Убедительная просьба не переливать на рутрекер и на другие ресурсы без согласования с аплоадером.
6.04.2013 - Релиз обновлён - русская дорога заменена на лицензию, добавлена украинская дорога и пакет субтитров.
Желающие, скачайте заново торрент-файл.
Остальные раздачи этого фильма (3)
Благодарности релизеру (98)

Торрент:

Статус:

Размер:

Зарегистрирован   [ 2013-04-06 15:08 ]

проверено

7.54 GB

 
 Мнение о фильме (24)

Пред.  1, 2






Мульт super, 3D потрясное.
 

Классный мультик 3D отличное с обилием вылетов.
 

Всей семье понравился мульт, спасибо за раздачу, 3Д на высоте.
 

По сюжету и персонажам мне больше понравилась чем первая, но по картинке вторая проигрывает, все-таки там целый океан, а тут всего лишь большой аквариум (но не намного). В итоге 2 часть для меня лучше, мне ее смотреть было интересней!
 

Страница 2 из 2

Пред.  1, 2