Торренты   
 
 

 

Топ Кэт в 3Д / Don gato y su pandilla 3D(Альберто Мар / Alberto Mar) [2011, мультфильм, боевик, комедия, семейный, BDrip, 1080p] Anamorph OverUnder / Вертикальная анаморфная стереопара

Рейтинг 3D:
5 голосов
7.9
Рейтинг фильма:
4 голосов
6.4
 
Вы должны быть авторизированы,
чтобы ставить оценки


Топ Кэт 3Д/Don gato y su pandilla 3D«Держи хвост пистолетом!»
Год выпуска: 2011
Страна: Мексика, Аргентина, Великобритания
Жанр: мультфильм, боевик, комедия, семейный
Продолжительность: 01:30:19
Перевод: Профессиональный (дублированный)
Русские субтитры: нет
Режиссер: Альберто Мар/ Alberto Mar-Роли озвучивали -Джейсон Харрис,Крис Эджерли,Билл Лобли,Бен Дискин,Мэттью Пьяцци
Крис Филлипс, Мелисса Дисней,Боб Калибан,Брайан МакФедден,Фред Татаскьор.Описание: Супер Кот и его озорная шайка бродячих котов сталкиваются с новым шефом полиции и своим старым заклятым врагом — офицером Дибблом. Полиция полна решимости помешать проделкам Кота и надеется выдворить его из любимого переулка. Но как бы они не старались, команде Супер Кота всегда удается обвести блюстителей закона вокруг пальца.

Техн. детали съёмки

Премьера: 16 сентября 2011 (29 ноября 2012)
Бюджет: $
Кассовые сборы: $
Релиз на DVD и Blu-Ray:13 декабря 2012 (31 января 2013)

. .
Проверено на встроенном плейере ТВ LG LW 650S
--Качество: BDrip
Контейнер: MKV
Формат 3D: Anamorph OverUnder / Вертикальная анаморфная стереопара
Порядок ракурсов: левый ракурс первый
Видео кодек: x264
Аудио кодек: AC3-Видео: AVC / 23,976 fps / 1920х1080p / 4722Kbps
Аудио: - Русский / AC3 / 48 KHz / 5.1 ch / 640 Kbps (Дубляж)
Субтитры: нет

MediaInfo

Общее
Уникальный идентификатор : 251840547288642836182747225647492913402 (0xBD76B9A1B005506EA75A4521FB7858FA)
Полное имя : E:\3Д мультики\Don gato y su pandilla (3D )2011.BDRip.1080p.Half OU.x264.AC3 Rus.3D-RuGroup.(m@rik05).mkv
Формат : Matroska
Версия формата : Version 4 / Version 2
Размер файла : 3,45 Гбайт
Продолжительность : 1 ч. 30 м.
Общий поток : 5471 Кбит/сек
Название фильма : Don gato y su pandilla 3D (2011) 3D-RuGroup
Дата кодирования : UTC 2010-02-22 21:41:31
Программа кодирования : mkvmerge v5.9.0 ('On The Loose') built on Dec 9 2012 15:37:01
Библиотека кодирования : libebml v1.3.0 + libmatroska v1.4.0
Видео
Идентификатор : 1
Формат : AVC
Формат/Информация : Advanced Video Codec
Профиль формата : High@L4.1
Параметр CABAC формата : Да
Параметр ReFrames формата : 4 кадра
Идентификатор кодека : V_MPEG4/ISO/AVC
Продолжительность : 1 ч. 30 м.
Битрейт : 4722 Кбит/сек
Ширина : 1920 пикселей
Высота : 1080 пикселей
Соотношение сторон : 16:9
Режим частоты кадров : Постоянный
Частота кадров : 23,976 кадра/сек
Цветовое пространство : YUV
Субдискретизация насыщенности : 4:2:0
Битовая глубина : 8 бит
Тип развёртки : Прогрессивная
Бит/(Пиксели*Кадры) : 0.095
Размер потока : 2,98 Гбайт (86%)
Заголовок : rip by m@rik05
Библиотека кодирования : x264 core 116 r2074 2641b9e
Настройки программы : cabac=1 / ref=4 / deblock=1:-3:-3 / analyse=0x3:0x133 / me=umh / subme=9 / psy=1 / psy_rd=1.00:0.05 / mixed_ref=1 / me_range=16 / chroma_me=1 / trellis=2 / 8x8dct=1 / cqm=0 / deadzone=21,11 / fast_pskip=1 / chroma_qp_offset=-3 / threads=12 / sliced_threads=0 / nr=0 / decimate=1 / interlaced=0 / bluray_compat=0 / constrained_intra=0 / bframes=6 / b_pyramid=2 / b_adapt=2 / b_bias=0 / direct=3 / weightb=1 / open_gop=0 / weightp=2 / keyint=250 / keyint_min=23 / scenecut=40 / intra_refresh=0 / rc_lookahead=60 / rc=crf / mbtree=1 / crf=17.0 / qcomp=0.60 / qpmin=10 / qpmax=69 / qpstep=4 / vbv_maxrate=40000 / vbv_bufsize=40000 / crf_max=0.0 / nal_hrd=none / frame-packing=4 / ip_ratio=1.40 / aq=1:0.70
Язык : English
Default : Да
Forced : Нет
Аудио
Идентификатор : 2
Формат : AC-3
Формат/Информация : Audio Coding 3
Расширение режима : CM (complete main)
Параметр Endianness формата : Big
Идентификатор кодека : A_AC3
Продолжительность : 1 ч. 30 м.
Вид битрейта : Постоянный
Битрейт : 640 Кбит/сек
Каналы : 6 каналов
Расположение каналов : Front: L C R, Side: L R, LFE
Частота : 48,0 КГц
Битовая глубина : 16 бит
Метод сжатия : С потерями
Размер потока : 413 Мбайт (12%)
Заголовок : AC3 5.1 @ 640 kbps - Дублированный
Язык : Russian
Default : Да
Forced : Нет
Меню
00:00:00.000 : en:00:00:00.000
00:05:14.856 : en:00:05:14.856
00:09:39.204 : en:00:09:39.204
00:16:31.741 : en:00:16:31.741
00:20:11.168 : en:00:20:11.168
00:27:02.079 : en:00:27:02.079
00:32:34.077 : en:00:32:34.077
00:38:38.525 : en:00:38:38.525
00:44:07.061 : en:00:44:07.061
00:49:09.864 : en:00:49:09.864
00:54:40.360 : en:00:54:40.360
00:59:47.209 : en:00:59:47.209
01:06:54.510 : en:01:06:54.510
01:11:43.049 : en:01:11:43.049
01:14:53.656 : en:01:14:53.656
01:21:41.021 : en:01:21:41.021

Log x264

Скриншоты


Остальные раздачи этого фильма (2)
Благодарности релизеру (25)

Торрент:

Статус:

Размер:

Зарегистрирован   [ 2012-12-16 17:43 ]

проверено

3.45 GB

 
 Мнение о фильме (2)





Так для встроенных был уже давно. Больше 10 минут просмотра этого "шедевра" выдержать не смог. Плоские фигуры персонажей перемещаются в хорошем, в принципе, объеме, а по содержанию полная тупость (может для латиносов и пойдет).
 

забавный мульт. спасибо!