Торренты   
 
 

 

Акулы.Короли океана 3Д / Sharks.3D.Kings.Of.The.Ocean (Тимо Йоханнес Майер / Timo Johannes Mayer) [2012 г., Anamorph OverUnder]

Рейтинг 3D:
3 голосов
8.8
Рейтинг фильма:
3 голосов
8.9
 
Вы должны быть авторизированы,
чтобы ставить оценки


Акулы.Короли океана 3Д / Haie - Fürsten der Meere / Sharks.3D.Kings.Of.The.Ocean
Год выпуска: 2012
Страна: Германия
Жанр: документальный (видовой)
Продолжительность: 00:51:12
Перевод: Отсутствует
Русские субтитры: нет
Режиссер: Тимо Йоханнес Майер / Timo Johannes Mayer
В ролях: Акулы и обитатели океана.
Описание:
Акулы считаются кровожадными монстрами. Чтобы удовлетворить свой голод, они готовы рвать всех и вся. На самом деле это не так, акулы очень умные и осторожные животные, которые были сделаны убийцами в средствах массовой информации, в какой они не являются. Д-р Эрих Риттер, известный специалист в области акул, работает уже более 20 лет с правителями морей и показывает истинную сторону этого хищника. За редкими фотографиями всех крупных акул и близко снятый в их естественной среде этот документальный фильм, потому что здесь акулы не изображены как людоеды, они показаны как - увлекательные существа. Снятый в 3D стереофильм приносит новое понимание об этих удивительных существах как об больших развлечений в вашем доме кино!-- . .
Проверено на встроенном плейере ТВ LG LW 650S
--Качество: BDrip
Контейнер: MKV
Формат 3D: Anamorph OverUnder / Вертикальная анаморфная стереопара
Порядок ракурсов: левый ракурс первый
Видео кодек: x264
Аудио кодек: AC3-Видео: AVC / 23,976 fps / 1920х1080p / 13,0 Mbps
Аудио: - Английский / AC3 / 48 KHz / 2.0 ch / 448 Kbps
Субтитры: нет

MediaInfo

Общее
Уникальный идентификатор : 228089715162597339759832588135977908406 (0xAB987B32CBDADF31993898D8B586F8B6)
Полное имя : E:\3Д фильмы\Sharks.3D.Kings.Of.The.Ocean(3D)2012.halfOU.1080p.AC3.(m@rik05).mkv
Формат : Matroska
Версия формата : Version 4 / Version 2
Размер файла : 4,90 Гбайт
Продолжительность : 51 м.
Общий поток : 13,7 Мбит/сек
Название фильма : Sharks.3D.Kings.Of.The.Ocean (2012)3D-RuGroup
Дата кодирования : UTC 2010-02-22 21:41:31
Программа кодирования : mkvmerge v5.9.0 ('On The Loose') built on Dec 9 2012 15:37:01
Библиотека кодирования : libebml v1.3.0 + libmatroska v1.4.0
Видео
Идентификатор : 1
Формат : AVC
Формат/Информация : Advanced Video Codec
Профиль формата : High@L4.1
Параметр CABAC формата : Да
Параметр ReFrames формата : 4 кадра
Идентификатор кодека : V_MPEG4/ISO/AVC
Продолжительность : 51 м.
Битрейт : 13,0 Мбит/сек
Ширина : 1920 пикселей
Высота : 1080 пикселей
Соотношение сторон : 16:9
Режим частоты кадров : Постоянный
Частота кадров : 23,976 кадра/сек
Цветовое пространство : YUV
Субдискретизация насыщенности : 4:2:0
Битовая глубина : 8 бит
Тип развёртки : Прогрессивная
Бит/(Пиксели*Кадры) : 0.261
Размер потока : 4,64 Гбайт (95%)
Заголовок : rip by m@rik05
Библиотека кодирования : x264 core 116 r2074 2641b9e
Настройки программы : cabac=1 / ref=4 / deblock=1:-3:-3 / analyse=0x3:0x133 / me=umh / subme=9 / psy=1 / psy_rd=1.00:0.05 / mixed_ref=1 / me_range=16 / chroma_me=1 / trellis=2 / 8x8dct=1 / cqm=0 / deadzone=21,11 / fast_pskip=1 / chroma_qp_offset=-3 / threads=12 / sliced_threads=0 / nr=0 / decimate=1 / interlaced=0 / bluray_compat=0 / constrained_intra=0 / bframes=6 / b_pyramid=2 / b_adapt=2 / b_bias=0 / direct=3 / weightb=1 / open_gop=0 / weightp=2 / keyint=250 / keyint_min=23 / scenecut=40 / intra_refresh=0 / rc_lookahead=60 / rc=crf / mbtree=1 / crf=16.0 / qcomp=0.60 / qpmin=10 / qpmax=69 / qpstep=4 / vbv_maxrate=40000 / vbv_bufsize=40000 / crf_max=0.0 / nal_hrd=none / frame-packing=4 / ip_ratio=1.40 / aq=1:0.70
Язык : German
Default : Да
Forced : Нет
Аудио
Идентификатор : 2
Формат : AC-3
Формат/Информация : Audio Coding 3
Расширение режима : CM (complete main)
Параметр Endianness формата : Big
Идентификатор кодека : A_AC3
Продолжительность : 51 м.
Вид битрейта : Постоянный
Битрейт : 448 Кбит/сек
Каналы : 2 канала
Расположение каналов : Front: L R
Частота : 48,0 КГц
Битовая глубина : 16 бит
Метод сжатия : С потерями
Размер потока : 164 Мбайт (3%)
Заголовок : AC3 2.0@ 448 kbp
Язык : English
Default : Да
Forced : Нет
Меню
00:00:00.000 : en:00:00:00.000
00:08:36.349 : en:00:08:36.349
00:15:13.371 : en:00:15:13.371
00:24:29.760 : en:00:24:29.760
00:31:50.992 : en:00:31:50.992
00:40:22.462 : en:00:40:22.462

Скриншоты

Благодарности релизеру (8)

Торрент:

Статус:

Размер:

Зарегистрирован   [ 2012-12-18 19:34 ]

проверено

4.9 GB