Торренты   
 
 

 

Шевели ластами 2 / Sammy's avonturen 2 [2012, BDrip, half1080p, Anamorph SideBySide]

Рейтинг 3D:
116 голосов
9.2
Рейтинг фильма:
106 голосов
7.7
 
Вы должны быть авторизированы,
чтобы ставить оценки


Шевели ластами 2 / Sammy's avonturen 2
Год выпуска: 2012
Страна: Бельгия
Жанр: мультфильм, приключения
Продолжительность: 01:32:51
Перевод: Профессиональный (дублированный)
Режиссер: Бен Стассен / Ben Stassen
Сценарий: Домоник Парис
Продюсер: Джина Галло, Мими Мэйнард
Композитор: Рамин Джавади
Художник: Винсент Кестелут
Роли озвучивали:
Билли Ангер, Пэт Кэрролл, Карлос МакКаллерс II, Синда Адамс, Дино Андраде, Крис Эндрю Кулла, Изабель Фурман, Уэсли Джонни, Силье Рейномо, Дуглас Райан Рот и др.
Роли дублировали:
Кирилл Туранский, Наталья Терешкова, Пётр Иващенко, Анна Денисова и др.
Описание:
Верные друзья навсегда, черепахи Сэмми и Рей, наслаждаются размеренной жизнью вблизи океана, а также присматривают за только что вылупившимися Рикки и Эллой. Внезапно, браконьер хватает больших черепах, они нужны ему для захватывающего морского шоу в Дубае. Центральная фигура шоу, морской конёк Большой Ди, посвящает новичков в свои планы на грандиозный побег.
Но, когда маленькие Рикки и Элла прибывают, чтобы спасти «дедушек», планы черепах и их новых друзей: пучеглазой рыбки Джимбо, осьминога Анабель, омара и большой семьи пингвинов, меняются. После ряда волнующих приключений и побегов, наши герои направляются на юг, чтобы встретиться с Шелли, первой и единственной любовью Сэмми.
Качество: BDrip by Alexman©
Формат 3D: Anamorph SideBySide / Горизонтальная анаморфная стереопара
Порядок ракурсов: левый ракурс первый
Видео: MPEG4 AVC, 8 052 Kbps, 1920x1080, 23.976 кадр/с
Аудио №1: Русский дублированный перевод / AC3 / 48 KHz / 5.1 ch / 448 Kbps
Аудио №2: Английский оригинальный / AC3 / 48 KHz / 5.1 ch / 640 Kbps

MediaInfo

General
Unique ID : 203191570930587518998336582311801848026 (0x98DD45E93DC75B02B0FF326ECF3900DA)
Complete name : Sammy's avonturen 2 [Шевели ластами 2] (2012) DUB hSbS 1080p by Alexman©.mkv
Format : Matroska
Format version : Version 4 / Version 2
File size : 6.05 GiB
Duration : 1h 32mn
Overall bit rate : 9 325 Kbps
Movie name : Sammy's avonturen 2 [Шевели ластами 2] (2012) DUB hSbS 1080p by Alexman©
Encoded date : UTC 2010-02-22 21:41:31
Writing application : mkvmerge v5.9.0 ('On The Loose') built on Dec 9 2012 15:37:01
Writing library : libebml v1.3.0 + libmatroska v1.4.0
Video
ID : 1
Format : AVC
Format/Info : Advanced Video Codec
Format profile : High@L4.1
Format settings, CABAC : Yes
Format settings, ReFrames : 4 frames
Codec ID : V_MPEG4/ISO/AVC
Duration : 1h 32mn
Bit rate : 8 052 Kbps
Width : 1 920 pixels
Height : 1 080 pixels
Display aspect ratio : 16:9
Frame rate : 23.976 fps
Color space : YUV
Chroma subsampling : 4:2:0
Bit depth : 8 bits
Scan type : Progressive
Bits/(Pixel*Frame) : 0.162
Stream size : 5.22 GiB (86%)
Title : Sammy's avonturen 2 [Шевели ластами 2] (2012) DUB hSbS 1080p by Alexman©
Writing library : x264 core 128 r2216 198a7ea
Encoding settings : cabac=1 / ref=4 / deblock=1:-3:-3 / analyse=0x3:0x113 / me=umh / subme=9 / psy=1 / psy_rd=1.00:0.15 / mixed_ref=1 / me_range=32 / chroma_me=1 / trellis=2 / 8x8dct=1 / cqm=0 / deadzone=21,11 / fast_pskip=1 / chroma_qp_offset=-3 / threads=4 / lookahead_threads=1 / sliced_threads=0 / nr=0 / decimate=1 / interlaced=0 / bluray_compat=0 / constrained_intra=0 / bframes=4 / b_pyramid=2 / b_adapt=2 / b_bias=0 / direct=3 / weightb=1 / open_gop=0 / weightp=2 / keyint=250 / keyint_min=23 / scenecut=40 / intra_refresh=0 / rc_lookahead=60 / rc=crf / mbtree=1 / crf=17.0 / qcomp=0.60 / qpmin=0 / qpmax=69 / qpstep=4 / vbv_maxrate=40000 / vbv_bufsize=40000 / crf_max=0.0 / nal_hrd=none / ip_ratio=1.40 / aq=1:0.70
Language : English
Default : Yes
Forced : No
Audio #1
ID : 2
Format : AC-3
Format/Info : Audio Coding 3
Mode extension : CM (complete main)
Codec ID : A_AC3
Duration : 1h 32mn
Bit rate mode : Constant
Bit rate : 448 Kbps
Channel(s) : 6 channels
Channel positions : Front: L C R, Side: L R, LFE
Sampling rate : 48.0 KHz
Bit depth : 16 bits
Compression mode : Lossy
Stream size : 298 MiB (5%)
Title : Русский дублированный перевод
Language : Russian
Default : Yes
Forced : Yes
Audio #2
ID : 3
Format : AC-3
Format/Info : Audio Coding 3
Mode extension : CM (complete main)
Codec ID : A_AC3
Duration : 1h 32mn
Bit rate mode : Constant
Bit rate : 640 Kbps
Channel(s) : 6 channels
Channel positions : Front: L C R, Side: L R, LFE
Sampling rate : 48.0 KHz
Bit depth : 16 bits
Compression mode : Lossy
Stream size : 425 MiB (7%)
Title : Английский
Language : English
Default : No
Forced : No

Скриншоты




Анимированные скриншоты для оценки 3Д-эффекта








Анаглифные скриншоты для оценки 3Д-эффекта




Проверено на ТВ Samsung 40C7000, Samsung 46D7000 и Philips 42PFL7606H
Остальные раздачи этого фильма (3)
Благодарности релизеру (27)

Торрент:

Статус:

Размер:

Зарегистрирован   [ 2012-12-20 09:39 ]

проверено

6.05 GB

 
 Мнение о фильме (24)

1, 2  След.






С 3D и вылетами всё в порядке, вот только мульт далёк от первой части :(
 

3D На высоте, одно из самых красивых просмотренных на данный момент! Впечатление что почти весь мультик находится как бы перед экраном, а сцены на глубине вообще замечательные! Вылетов реально море! Очень красиво, понравилось и мне и моей дочке!
 
Елена Катасонова Профиль 20-Дек-2012 11:07

3Д отличное , дети были в восторге да инам с женой понравилось .
 

3Д классное мульт фиговый
 

Мультфильм очень классный, а в 3d смотреть просто очуметь!))) Большое спасибо вам от чистого сердца!
 

3Д - супер, сюжет - не очень
 

у меня чёто небыло вылетов среднее 3d, и перевод прыгает правдо мой второй просмтр 3d телевизор 42lm640t
 

У меня тв 32LM620T.Низнаю как у меня будет,но надеюсь что здесь будут хорошие 3D эффекты.А кто нибудь сможет подсказать в каких мультфильмах или фильмах качество 3D и вылеты есть??Спасибо заранее.
 

Nikita Benda, обращайте внимание на Рейтинг 3D, это помогает
 

хорошо,спасибо
 

Мультфильм хороший,а 3D просто,супер!!!!!
 

3д отличное!!! Но мультик слишком детский. Лет от 2 и дальше..
 

Да, 3D действительно на высоте, а вот сюжет, лично мне, не очень. Вернее задумка нормальная, но очень скучноватый, мало приколов, посмеяться можно лишь в немногих случаях. Здесь и спасает 3D. Все остаются довольны!
 

Фильм хороший - 3D отлично, что в первой части, что во второй.
Советую посмотреть всем...
 

Шикарный мульт, 3Д отличное!!!
 

Всё путём
 

Подскажите, у меня одного так? Иногда дергается экран. Смотрю на LG LM640t.
 

Шикарное 3D
 

Ух ты ух ты, как это я пропустил такое:)
ТС, спасибо Вам от дочи персональное :) Побольше таких качественных релизов!
 

Племяшка постоянно охала и ахала))вылеты были везде)
 

Страница 1 из 2

1, 2  След.