Торренты   
 
 

 

Шевели ластами 2 в 3Д / Sammy's avonturen 2 3D (Бен Стассен / Ben Stassen) [2012, мультфильм, приключения, BDrip, 1080p]Full OverUnder / Вертикальная стереопара

Рейтинг 3D:
116 голосов
9.2
Рейтинг фильма:
106 голосов
7.7
 
Вы должны быть авторизированы,
чтобы ставить оценки


Шевели ластами 2 / Sammy's avonturen 2
Год выпуска: 2012
Страна: Бельгия
Студия: nWave Pictures, Illuminata Pictures, Motion Invest
Жанр: мультфильм, приключения
Продолжительность: 01:32:51
Перевод: Профессиональный (дублированный)
Русские субтитры: нет
Режиссер на русском: Бен Стассен
Режиссер на английском: Ben Stassen
В ролях: Билли Ангер, Пэт Кэрролл, Карлос МакКаллерс II, Синда Адамс, Дино Андраде, Крис Эндрю Кулла, Изабель Фурман, Уэсли Джонни, Силье Рейномо, Дуглас Райан Рот и др.
Роли озвучивали: Кирилл Туранский, Наталья Терешкова, Пётр Иващенко, Анна Денисова и др.
Описание: Верные друзья навсегда, черепахи Сэмми и Рей, наслаждаются размеренной жизнью вблизи океана, а также присматривают за только что вылупившимися Рикки и Эллой. Внезапно, браконьер хватает больших черепах, они нужны ему для захватывающего морского шоу в Дубае. Центральная фигура шоу, морской конёк Большой Ди, посвящает новичков в свои планы на грандиозный побег.
Но, когда маленькие Рикки и Элла прибывают, чтобы спасти «дедушек», планы черепах и их новых друзей: пучеглазой рыбки Джимбо, осьминога Анабель, омара и большой семьи пингвинов, меняются. После ряда волнующих приключений и побегов, наши герои направляются на юг, чтобы встретиться с Шелли, первой и единственной любовью Сэмми.
Сэмпл: http://www.sendspace.com/file/l212fu
Качество: BDrip
Контейнер: MKV
Формат 3D: OverUnder / Вертикальная стереопара
Порядок ракурсов: левый ракурс первый
Видео кодек: x264
Аудио кодек: AC3
Видео: AVC /High@L5.0/ 23,976 fps / 1920х2160 / 15.8 Mbps
Аудио: Русский / AC3 / 48 KHz / 5.1 ch / 448 Kbps
Аудио 2: Английский / AC3 / 48 KHz / 5.1 ch / 640 Kbps
ВНИМАНИЕ ! На встроенных ТВ-плейерах работать не будет!!!
Железные плееры на которых воспроизводятся полные стереопары:Popcorn C-200 , Dune HD Smart D1 , Dune HD DUO , Dune HD Smart H1 , Dune HD Smart B1 , Dune HD Max.

MediaInfo

General
Unique ID : 220139371931349541661597512499997892585 (0xA59D4D0376FC8038A6546B97998EDFE9)
Complete name : E:\закачки\Sammy's avonturen 2.mkv
Format : Matroska
Format version : Version 2
File size : 11.2 GiB
Duration : 1h 32mn
Overall bit rate : 17.2 Mbps
Encoded date : UTC 2012-12-22 15:18:19
Writing application : mkvmerge v3.4.0 ('Rapunzel') сборка от May 15 2010 09:38:20
Writing library : libebml v0.8.0 + libmatroska v0.9.0
Video
ID : 1
Format : AVC
Format/Info : Advanced Video Codec
Format profile : High@L5.0
Format settings, CABAC : Yes
Format settings, ReFrames : 4 frames
Codec ID : V_MPEG4/ISO/AVC
Duration : 1h 32mn
Bit rate : 15.8 Mbps
Width : 1 920 pixels
Height : 2 160 pixels
Display aspect ratio : 0.889
Frame rate mode : Constant
Frame rate : 23.976 fps
Color space : YUV
Chroma subsampling : 4:2:0
Bit depth : 8 bits
Scan type : Progressive
Bits/(Pixel*Frame) : 0.159
Stream size : 10.2 GiB (92%)
Title : Rip by SeRoGa00
Writing library : x264 core 128 r2216kMod 198a7ea
Encoding settings : cabac=1 / ref=4 / deblock=1:-1:-1 / analyse=0x3:0x133 / me=umh / subme=9 / psy=1 / fade_compensate=0.00 / psy_rd=1.00:0.15 / mixed_ref=1 / me_range=16 / chroma_me=1 / trellis=2 / 8x8dct=1 / cqm=0 / deadzone=21,11 / fast_pskip=1 / chroma_qp_offset=-3 / threads=9 / lookahead_threads=1 / sliced_threads=0 / nr=0 / decimate=1 / interlaced=0 / bluray_compat=0 / constrained_intra=0 / bframes=6 / b_pyramid=2 / b_adapt=2 / b_bias=0 / direct=3 / weightb=1 / open_gop=0 / weightp=2 / keyint=250 / keyint_min=23 / scenecut=40 / intra_refresh=0 / rc_lookahead=60 / rc=crf / mbtree=1 / crf=18.0000 / qcomp=0.60 / qpmin=10 / qpmax=69 / qpstep=4 / vbv_maxrate=40000 / vbv_bufsize=40000 / crf_max=0.0 / nal_hrd=none / ip_ratio=1.40 / aq=1:1.00
Language : English
Default : Yes
Forced : No
Audio #1
ID : 2
Format : AC-3
Format/Info : Audio Coding 3
Mode extension : CM (complete main)
Format settings, Endianness : Big
Codec ID : A_AC3
Duration : 1h 32mn
Bit rate mode : Constant
Bit rate : 448 Kbps
Channel(s) : 6 channels
Channel positions : Front: L C R, Side: L R, LFE
Sampling rate : 48.0 KHz
Bit depth : 16 bits
Compression mode : Lossy
Stream size : 298 MiB (3%)
Language : Russian
Default : Yes
Forced : No
Audio #2
ID : 3
Format : AC-3
Format/Info : Audio Coding 3
Mode extension : CM (complete main)
Format settings, Endianness : Big
Codec ID : A_AC3
Duration : 1h 32mn
Bit rate mode : Constant
Bit rate : 640 Kbps
Channel(s) : 6 channels
Channel positions : Front: L C R, Side: L R, LFE
Sampling rate : 48.0 KHz
Bit depth : 16 bits
Compression mode : Lossy
Stream size : 425 MiB (4%)
Language : English
Default : No
Forced : No

Скриншоты


Остальные раздачи этого фильма (3)
Благодарности релизеру (7)

Торрент:

Статус:

Размер:

Зарегистрирован   [ 2012-12-22 20:03 ]

проверено

11.17 GB

 
 Мнение о фильме (24)

1, 2  След.






С 3D и вылетами всё в порядке, вот только мульт далёк от первой части :(
 

3D На высоте, одно из самых красивых просмотренных на данный момент! Впечатление что почти весь мультик находится как бы перед экраном, а сцены на глубине вообще замечательные! Вылетов реально море! Очень красиво, понравилось и мне и моей дочке!
 
Елена Катасонова Профиль 20-Дек-2012 11:07

3Д отличное , дети были в восторге да инам с женой понравилось .
 

3Д классное мульт фиговый
 

Мультфильм очень классный, а в 3d смотреть просто очуметь!))) Большое спасибо вам от чистого сердца!
 

3Д - супер, сюжет - не очень
 

у меня чёто небыло вылетов среднее 3d, и перевод прыгает правдо мой второй просмтр 3d телевизор 42lm640t
 

У меня тв 32LM620T.Низнаю как у меня будет,но надеюсь что здесь будут хорошие 3D эффекты.А кто нибудь сможет подсказать в каких мультфильмах или фильмах качество 3D и вылеты есть??Спасибо заранее.
 

Nikita Benda, обращайте внимание на Рейтинг 3D, это помогает
 

хорошо,спасибо
 

Мультфильм хороший,а 3D просто,супер!!!!!
 

3д отличное!!! Но мультик слишком детский. Лет от 2 и дальше..
 

Да, 3D действительно на высоте, а вот сюжет, лично мне, не очень. Вернее задумка нормальная, но очень скучноватый, мало приколов, посмеяться можно лишь в немногих случаях. Здесь и спасает 3D. Все остаются довольны!
 

Фильм хороший - 3D отлично, что в первой части, что во второй.
Советую посмотреть всем...
 

Шикарный мульт, 3Д отличное!!!
 

Всё путём
 

Подскажите, у меня одного так? Иногда дергается экран. Смотрю на LG LM640t.
 

Шикарное 3D
 

Ух ты ух ты, как это я пропустил такое:)
ТС, спасибо Вам от дочи персональное :) Побольше таких качественных релизов!
 

Племяшка постоянно охала и ахала))вылеты были везде)
 

Страница 1 из 2

1, 2  След.