Торренты   
 
 

 

сНежное шоу Славы Полунина 3D/ Snow Show 3D [2012 г., BDrip, 1080p, Anamorph SideBySide]

Рейтинг 3D:
33 голосов
8.0
Рейтинг фильма:
36 голосов
8.2
 
Вы должны быть авторизированы,
чтобы ставить оценки


сНежное шоу Славы Полунина / Snow Show
Год выпуска: 2012
Страна: Россия / Франция, La Compagnie des Indes
Жанр: документальный, семейный, цирк
Продолжительность: 01:02:35
Перевод: не требуется
Режиссер: Виктор Крамер
В ролях: Слава Полунин, Роберт Саралпов, Артем Жимо и др.
О фильме:
Для кого-то это шоу покажется лирическим воспоминанием о детстве, для кого-то станет пронзительным рассказом об одиночестве. Кто-то будет от души смеяться над желтым клоуном в лохматых красных тапочках и повторять вслед за ним: «Асисяй…» А у кого-то будут наворачиваться слезы от щемящей трепетности маленького человека в бездонной синеве вселенной… И любовь, словно паутина, окутает каждого в зале и заставит радоваться до слёз, не даст забыть, ещё долго будет будоражить странными чудесными воспоминаниями.
Качество: BDrip by Alexman©
Формат 3D: Anamorph SideBySide / Горизонтальная анаморфная стереопара
Порядок ракурсов: левый ракурс первый
Видео: MPEG4 AVC, 20.6 Mbps, 1920x1080, 23.976 кадр/с
Аудио №1: Русский / AC3 / 48 KHz / 5.1 ch / 640 Kbps

MediaInfo

General
Unique ID : 232739461424430471869992000417505269769 (0xAF17FD6384D22715B992313B7344D809)
Complete name : Snow Show 3D [сНежное шоу Славы Полунина 3D] (2012) 1080p by Alexman©.mkv
Format : Matroska
Format version : Version 4 / Version 2
File size : 9.49 GiB
Duration : 1h 2mn
Overall bit rate : 21.7 Mbps
Movie name : Snow Show 3D [сНежное шоу Славы Полунина 3D] (2012) 1080p by Alexman©
Encoded date : UTC 2010-02-22 21:41:31
Writing application : mkvmerge v5.9.0 ('On The Loose') built on Dec 9 2012 15:37:01
Writing library : libebml v1.3.0 + libmatroska v1.4.0
Video
ID : 1
Format : AVC
Format/Info : Advanced Video Codec
Format profile : High@L4.1
Format settings, CABAC : Yes
Format settings, ReFrames : 4 frames
Codec ID : V_MPEG4/ISO/AVC
Duration : 1h 2mn
Bit rate : 20.6 Mbps
Width : 1 920 pixels
Height : 1 080 pixels
Display aspect ratio : 16:9
Frame rate : 23.976 fps
Color space : YUV
Chroma subsampling : 4:2:0
Bit depth : 8 bits
Scan type : Progressive
Bits/(Pixel*Frame) : 0.415
Stream size : 9.02 GiB (95%)
Writing library : x264 core 128 r2216 198a7ea
Encoding settings : cabac=1 / ref=4 / deblock=1:-3:-3 / analyse=0x3:0x113 / me=umh / subme=9 / psy=1 / psy_rd=1.00:0.15 / mixed_ref=1 / me_range=32 / chroma_me=1 / trellis=2 / 8x8dct=1 / cqm=0 / deadzone=21,11 / fast_pskip=1 / chroma_qp_offset=-3 / threads=4 / lookahead_threads=1 / sliced_threads=0 / nr=0 / decimate=1 / interlaced=0 / bluray_compat=0 / constrained_intra=0 / bframes=4 / b_pyramid=2 / b_adapt=2 / b_bias=0 / direct=3 / weightb=1 / open_gop=0 / weightp=2 / keyint=250 / keyint_min=23 / scenecut=40 / intra_refresh=0 / rc_lookahead=60 / rc=crf / mbtree=1 / crf=17.0 / qcomp=0.60 / qpmin=0 / qpmax=69 / qpstep=4 / vbv_maxrate=40000 / vbv_bufsize=40000 / crf_max=0.0 / nal_hrd=none / ip_ratio=1.40 / aq=1:0.70
Language : Russian
Default : Yes
Forced : No
Audio
ID : 2
Format : AC-3
Format/Info : Audio Coding 3
Mode extension : CM (complete main)
Codec ID : A_AC3
Duration : 1h 2mn
Bit rate mode : Constant
Bit rate : 640 Kbps
Channel(s) : 6 channels
Channel positions : Front: L C R, Side: L R, LFE
Sampling rate : 48.0 KHz
Bit depth : 16 bits
Compression mode : Lossy
Stream size : 286 MiB (3%)
Language : Russian
Default : Yes
Forced : Yes

Скриншоты




Анимированные скриншоты для оценки 3Д-эффекта








Анаглифные скриншоты для оценки 3Д-эффекта




Проверено на ТВ Samsung 40C7000, Samsung 46D7000 и Philips 42PFL7606H
Остальные раздачи этого фильма (3)
Благодарности релизеру (20)

Торрент:

Статус:

Размер:

Зарегистрирован   [ 2012-12-25 10:55 ]

проверено

9.49 GB

 
 Мнение о фильме (15)





полгода назад смотрел в 2д и думал - ниужели в объеме такого шедевра нету... - но Слава конечно продумал и это!
супер-шоу!
спасибищще!
 

Замечательное шоу ! Такие сейчас редкость.
 

Спасибо огромное раздающему ash61 за великолепный фильм - шоу Славы Полунина
Всегда жду с нетерпением Ваших новых раздач.
Удачи Вам во всём !
 

Спасибо огромное!!!!
 

Просто класс!!!
 

буржуи зделовшие из этого спектакля,- шедевр - придурки. а, вот, дети из зала, вовлеченные в этот спектакль,- сделали из этой инсталяции - шедевр. спектакль является частью зрительного зала как в 3d, так и живьем. скачаете не пожалеете
 

спасибо, получил массу позитивных впечатлений
 

Не скажу что шедевр , но смотреть можно без напрягов. Местами вызывает ностальгическую улыбку .
3D - нормальное , насколько это возможно для спектакля.
Александру спасибо за раздачу.
+ Любимый релизер.
 

Прикольное шоу. Просмотр оставил только положительные эмоции. Хожу улыбаюсь. Настроение поднялось!!!! Советую посмотреть, не пожалеете!!!
 

Ну что могу сказать...*Выбежал с табуреткой,встал, крикнул -Песня!!! и убежал*. Хорошие шутки,офигенное музыкальное сопровождение и просто весёлое шоу! Смотрите,не пожалеете! Спасибо тем,кто раздавал! Качество радует!
 

Очень хорошо пошло в Новогоднюю ночь!
 

Спасибо огромное!!!! Смотрите,не пожалеете! Спасибо тем,кто раздавал!
 

на любителя
 

Детишкам понравилось
 

В свое время сходил на это выступление, просто класс. Сейчас скачал чтобы еще раз посмотреть. Спасибо, все отлично.