Торренты   
 
 


Франкенвини / Frankenweenie [2012, BDrip, half1080p, Anamorph SideBySide]

Рейтинг 3D:
41 голосов
6.9
Рейтинг фильма:
42 голосов
6.6
 
Вы должны быть авторизированы,
чтобы ставить оценки


Франкенвини / Frankenweenie
Год выпуска: 2012
Страна: Walt Disney Pictures, Tim Burton Animation Co. (США)
Жанр: мультфильм, ужасы, фантастика, комедия, семейный
Продолжительность: 01:26:57
Перевод: Профессиональный дублированный
Режиссеры: Тим Бёртон
Актёры озвучания:
Чарли Тахэн, Кэтрин О’Хара, Мартин Шорт, Мартин Ландау, Вайнона Райдер, Роберт Капрон, Кончата Феррелл, Аттикус Шаффер, Том Кенни, Джеймс Хироюки Лиао
Описание: Обожаемый мальчиком Виктором пес Спарки погибает в результате несчастного случая. Мальчик, не желая мириться с потерей друга, призывает науку на помощь и…возвращает питомца к жизни! Казалось бы, все не так уж плохо, но когда Спарки сбегает от Виктора, его друзья, родители, учителя и жители городка узнают, что возвращение к жизни домашнего питомца может повлечь за собой неожиданные и даже ужасные последствия!
Дополнительная информация: Мультфильм чёрно-белый!
Качество: BDrip by Alexman©
Формат 3D: Anamorph SideBySide
Порядок ракурсов: Параллельная пара
Видео: MPEG4 AVC, 6 869 Kbps, 1920x1080, 23.976 кадр/с
Аудио №1: Русский дублированный перевод / AC3 / 48 KHz / 5.1 ch / 640 Kbps
Аудио №2: Украинский дублированный перевод / AC3 / 48 KHz / 5.1 ch / 640 Kbps
Аудио №3: Английский оригинальный / AC3 / 48 KHz / 5.1 ch / 640 Kbps
Субтитры: Русские (форсированные + полные)

MediaInfo

General
Unique ID : 171144150905631236414095920057481067816 (0x80C12A1CE83BDA2B8442C15427367D28)
Complete name : Frankenweenie [Франкенвини] (2012) DUB hSbS 1080p by Alexman©.mkv
Format : Matroska
Format version : Version 4 / Version 2
File size : 5.45 GiB
Duration : 1h 26mn
Overall bit rate : 8 967 Kbps
Movie name : Frankenweenie [Франкенвини] (2012) DUB hSbS 1080p by Alexman©
Encoded date : UTC 2013-01-26 17:48:08
Writing application : mkvmerge v6.0.0 ('Coming Up For Air') built on Jan 20 2013 09:52:00
Writing library : libebml v1.3.0 + libmatroska v1.4.0
Video
ID : 1
Format : AVC
Format/Info : Advanced Video Codec
Format profile : High@L4.1
Format settings, CABAC : Yes
Format settings, ReFrames : 4 frames
Codec ID : V_MPEG4/ISO/AVC
Duration : 1h 26mn
Bit rate : 6 869 Kbps
Width : 1 920 pixels
Height : 1 080 pixels
Display aspect ratio : 16:9
Frame rate mode : Constant
Frame rate : 23.976 fps
Color space : YUV
Chroma subsampling : 4:2:0
Bit depth : 8 bits
Scan type : Progressive
Bits/(Pixel*Frame) : 0.138
Stream size : 4.17 GiB (77%)
Writing library : x264 core 128 r2216 198a7ea
Encoding settings : cabac=1 / ref=4 / deblock=1:-3:-3 / analyse=0x3:0x113 / me=umh / subme=9 / psy=1 / psy_rd=1.00:0.15 / mixed_ref=1 / me_range=32 / chroma_me=1 / trellis=2 / 8x8dct=1 / cqm=0 / deadzone=21,11 / fast_pskip=1 / chroma_qp_offset=-3 / threads=4 / lookahead_threads=1 / sliced_threads=0 / nr=0 / decimate=1 / interlaced=0 / bluray_compat=0 / constrained_intra=0 / bframes=4 / b_pyramid=2 / b_adapt=2 / b_bias=0 / direct=3 / weightb=1 / open_gop=0 / weightp=2 / keyint=250 / keyint_min=23 / scenecut=40 / intra_refresh=0 / rc_lookahead=60 / rc=crf / mbtree=1 / crf=17.0 / qcomp=0.60 / qpmin=0 / qpmax=69 / qpstep=4 / vbv_maxrate=40000 / vbv_bufsize=40000 / crf_max=0.0 / nal_hrd=none / ip_ratio=1.40 / aq=1:0.70
Language : English
Default : Yes
Forced : No
Audio #1
ID : 2
Format : AC-3
Format/Info : Audio Coding 3
Mode extension : CM (complete main)
Format settings, Endianness : Big
Codec ID : A_AC3
Duration : 1h 26mn
Bit rate mode : Constant
Bit rate : 640 Kbps
Channel(s) : 6 channels
Channel positions : Front: L C R, Side: L R, LFE
Sampling rate : 48.0 KHz
Bit depth : 16 bits
Compression mode : Lossy
Stream size : 398 MiB (7%)
Title : Русский дублированный
Language : Russian
Default : Yes
Forced : Yes
Audio #2
ID : 3
Format : AC-3
Format/Info : Audio Coding 3
Mode extension : CM (complete main)
Format settings, Endianness : Big
Codec ID : A_AC3
Duration : 1h 26mn
Bit rate mode : Constant
Bit rate : 640 Kbps
Channel(s) : 6 channels
Channel positions : Front: L C R, Side: L R, LFE
Sampling rate : 48.0 KHz
Bit depth : 16 bits
Compression mode : Lossy
Stream size : 398 MiB (7%)
Title : Украинский дублированный
Language : Ukrainian
Default : No
Forced : No
Audio #3
ID : 4
Format : AC-3
Format/Info : Audio Coding 3
Mode extension : CM (complete main)
Format settings, Endianness : Big
Codec ID : A_AC3
Duration : 1h 26mn
Bit rate mode : Constant
Bit rate : 640 Kbps
Channel(s) : 6 channels
Channel positions : Front: L C R, Side: L R, LFE
Sampling rate : 48.0 KHz
Bit depth : 16 bits
Compression mode : Lossy
Stream size : 398 MiB (7%)
Title : Английский оригинальный
Language : English
Default : No
Forced : No

Скриншоты




Анимированные скриншоты для оценки 3Д-эффекта








Анаглифные скриншоты для оценки 3Д-эффекта




Проверено на ТВ Samsung 40C7000, Samsung 46D7000 и Philips 42PFL7606HМультфильм перезалит 27.01.2013 - дорожка русского дубляжа заменена на лицензионную, добавлен украинский дубляж, русские полные и форсированные субтитры. Желающие могут перекачать торрент.
Остальные раздачи этого фильма (3)
Благодарности релизеру (34)

Торрент:

Статус:

Размер:

Зарегистрирован   [ 2013-01-27 15:57 ]

проверено

5.58 GB

 
 Мнение о фильме (15)





"Релиз на DVD и Blu-Ray: 5 февраля 2013"
А откуда он тут? Или пиратка и не стоит качать?
 

Pendalf сам то понял что сказал?
 

Фильм посмотреть можно. Детям от 12+ думаю будет интересно.
 

Чушьььььььььь!Особенно разозлило что он еще и черно-белый,,,,,,Кому хватило ума зделать мульт без цвета?Да еше и в три де-Яркие цвета -это же основное в мультфильмах,,,,,,,
 

Кому хватило ума
Тим Бёртон такой затейник... :)
 

2012 — Премия кружка кинокритиков Нью-Йорка за лучший анимационный фильм.
2012 — Номинация Золотой глобус 2013 — Лучший анимационный фильм.
Очень классный, атмосферный мультик.
Это не простая штамповка, давно такого не видел.
 

Думаю в цвете все-таки в разы интереснее смотрелся бы. А так к несчастью заснул за 40 минут до конца( Но в финале проснулся)
 

Не, не понимаю черно-белые творения, прохожу мимо.
 

Небольшой СПОЙЛЕР
Неплохо получилось - идея чб именно для данной картины подходит идеально, но 3д не украсило картину, стоило начинать смотреть обычную версию. Сам мультфильм немного огорчил, начиналось все хорошо, а вот непонятная концовка с черепахой-годзилой - wtf!?, поэтому 6.
 

Сам по себе мультик это "кладбище домашних животных" переснятое для детей.....
Единтвенно, что понрвилось это глубина 3D....
 

Мульт вообще как пародия: Франкенштейн, Годзила, Гремлины, Кладбище домашних животных. За релиз спасибо, один раз смотреть можно, из-за 3d.
 

Любимый мульт 7-ми летней дочери :) Столько чувств в одном мульте ещё не встречал. Специально зарегистрировался здесь только из-за него.
 

Угу, надо еще черно белые фильмы снимать с артефактами старой кинопленки и без звука, глядишь премию какую нибудь дадут.
 

Народ как скачать? у меня нет ссылки на скачивание....
 

Отличный мультик со смыслом! Много "чёрного юмора", ну и собственно все герои похожи на мертвецов, хотя вроде бы живы :) А вообще, это история друзей - мальчика и пса - которая продолжалась и после смерти питомца. Акт преданности в финале довел меня до слез, честно... На телеке просто идеально чистая объемная картинка, ощущается эффект погружения в мрачную атмосферу городка. От первого шага черепашки Шелли, обратившейся в Годзиллу (или, правильнее, Тортиллу) я даж вздрогнул :)))