Торренты   
 
 


Феи: Тайна зимнего леса 3Д / Secret of the Wings 3D(Роберт Ганнавей, Пегги Холмс) [2012 г., Anamorph OverUnder]

Рейтинг 3D:
27 голосов
6.8
Рейтинг фильма:
25 голосов
6.7
 
Вы должны быть авторизированы,
чтобы ставить оценки


Феи: Тайна зимнего леса 3Д/Secret of the Wings 3D«Два мира. Одна тайна»
Год выпуска: 2012
Страна: США
Жанр: мультфильм, фэнтези, семейный
Продолжительность: 01:15:04
Перевод: Профессиональный (полное дублирование) лицензия
Режиссер: Роберт Ганнавей, Пегги Холмс/ Robert Gannaway,Peggy Holmes-Роли озвучивали (дублировали) -Тимоти Далтон
Люси Хейл - Юлия Довганишина
Меган Хилти - Ирина Рахманова
Анжелика Хьюстон - Оксана Фёдорова
Мэтт Лантер
Джесси МакКартни
Мэй Уитман - Анна Бегунова
Люси Лью - Ольга Арнтгольц
Памела Адлон - Елена Великанова
Анджела Бартис - Анастасия Цветаева
Описание: Динь-Динь и ее подруги всегда боялись пересекать границу с Зимним лесом, ведь существует поверье, что там очень опасно. В один прекрасный день Динь-Динь, сгорая от любопытства, подходит вплотную к лесу, и ее крылья неожиданно начинают блестеть и переливаться. Завороженная Динь, желая узнать тайну волшебных крыльев, кутается в теплое пальто и отправляется в глубь таинственного леса, где ее ждет неожиданное открытие…

Техн. детали съёмки

Премьера: 16 августа 2012 (29 ноября 2012)
Бюджет: $12 000 000
Кассовые сборы: $47 500 000
Релиз на DVD и Blu-Ray:18 декабря 2012, «Уолт Дисней Компани СНГ»

. .
Проверено на встроенном плейере ТВ LG LW 650S
--Качество: BDrip
Контейнер: MKV
Формат 3D: Anamorph OverUnder / Вертикальная анаморфная стереопара
Порядок ракурсов: левый ракурс первый
Видео кодек: x264
Аудио кодек: AC3-Видео: AVC / 23,976 fps / 1920х1080p / 9363 Kbps
Аудио 1: - Русский / AC3 / 48 KHz / 5.1 ch / 640 Kbps (Дубляж - BD EUR) + отдельным файлом на (народ.ру)
Аудио 2: - Английский / AC3 / 48 KHz / 5.1 ch / 640 Kbps
Субтитры вшитые softsub (SRT):
#1 - Русские Forced (включены по умолчанию, 2 фразы)
#2 - Русские Full
#3 - English Full
#4 - English SDH

MediaInfo

Общее
Уникальный идентификатор : 172748425741200748015169497590739481802 (0x81F622F81761A6098FC3C3A400ABB4CA)
Полное имя : E:\3Д мультики\Secret of the Wings 3D (2012).BDRip1080p.Half.OU.x264.AC3.3D-RuGroup(m@rik05).mkv
Формат : Matroska
Версия формата : Version 4 / Version 2
Размер файла : 5,85 Гбайт
Продолжительность : 1 ч. 15 м.
Общий поток : 11,2 Мбит/сек
Название фильма : Secret of the Wings 3D (2012) 3D-RuGroup (m@rik05)
Дата кодирования : UTC 2010-02-22 21:41:31
Программа кодирования : mkvmerge v5.9.0 ('On The Loose') built on Dec 9 2012 15:37:01
Библиотека кодирования : libebml v1.3.0 + libmatroska v1.4.0
Видео
Идентификатор : 1
Формат : AVC
Формат/Информация : Advanced Video Codec
Профиль формата : High@L4.1
Параметр CABAC формата : Да
Параметр ReFrames формата : 4 кадра
Идентификатор кодека : V_MPEG4/ISO/AVC
Продолжительность : 1 ч. 15 м.
Битрейт : 9663 Кбит/сек
Ширина : 1920 пикселей
Высота : 1080 пикселей
Соотношение сторон : 16:9
Режим частоты кадров : Постоянный
Частота кадров : 23,976 кадра/сек
Цветовое пространство : YUV
Субдискретизация насыщенности : 4:2:0
Битовая глубина : 8 бит
Тип развёртки : Прогрессивная
Бит/(Пиксели*Кадры) : 0.194
Размер потока : 5,07 Гбайт (87%)
Заголовок : Rip by m@rik 05
Библиотека кодирования : x264 core 116 r2074 2641b9e
Настройки программы : cabac=1 / ref=4 / deblock=1:-3:-3 / analyse=0x3:0x133 / me=umh / subme=9 / psy=1 / psy_rd=1.00:0.05 / mixed_ref=1 / me_range=16 / chroma_me=1 / trellis=2 / 8x8dct=1 / cqm=0 / deadzone=21,11 / fast_pskip=1 / chroma_qp_offset=-3 / threads=12 / sliced_threads=0 / nr=0 / decimate=1 / interlaced=0 / bluray_compat=0 / constrained_intra=0 / bframes=6 / b_pyramid=2 / b_adapt=2 / b_bias=0 / direct=3 / weightb=1 / open_gop=0 / weightp=2 / keyint=250 / keyint_min=23 / scenecut=40 / intra_refresh=0 / rc_lookahead=60 / rc=crf / mbtree=1 / crf=17.0 / qcomp=0.60 / qpmin=10 / qpmax=69 / qpstep=4 / vbv_maxrate=40000 / vbv_bufsize=40000 / crf_max=0.0 / nal_hrd=none / frame-packing=4 / ip_ratio=1.40 / aq=1:0.70
Язык : English
Default : Да
Forced : Нет
Аудио #1
Идентификатор : 2
Формат : AC-3
Формат/Информация : Audio Coding 3
Расширение режима : CM (complete main)
Параметр Endianness формата : Big
Идентификатор кодека : A_AC3
Продолжительность : 1 ч. 15 м.
Вид битрейта : Постоянный
Битрейт : 640 Кбит/сек
Каналы : 6 каналов
Расположение каналов : Front: L C R, Side: L R, LFE
Частота : 48,0 КГц
Битовая глубина : 16 бит
Метод сжатия : С потерями
Размер потока : 344 Мбайт (6%)
Заголовок : AC3 / 5.1 ch / 640 kbps / Русский дубляж BD EUR
Язык : Russian
Default : Да
Forced : Нет
Аудио #2
Идентификатор : 3
Формат : AC-3
Формат/Информация : Audio Coding 3
Расширение режима : CM (complete main)
Параметр Endianness формата : Big
Идентификатор кодека : A_AC3
Продолжительность : 1 ч. 15 м.
Вид битрейта : Постоянный
Битрейт : 640 Кбит/сек
Каналы : 6 каналов
Расположение каналов : Front: L C R, Side: L R, LFE
Частота : 48,0 КГц
Битовая глубина : 16 бит
Метод сжатия : С потерями
Размер потока : 344 Мбайт (6%)
Заголовок : AC3 / 5/1 ch / 640 kbps / Английский original BD EUR
Язык : English
Default : Нет
Forced : Нет
Текст #1
Идентификатор : 4
Формат : UTF-8
Идентификатор кодека : S_TEXT/UTF8
Идентификатор кодека/Информация : UTF-8 Plain Text
Заголовок : Forced BD EUR
Язык : Russian
Default : Да
Forced : Нет
Текст #2
Идентификатор : 5
Формат : UTF-8
Идентификатор кодека : S_TEXT/UTF8
Идентификатор кодека/Информация : UTF-8 Plain Text
Заголовок : Full BD EUR
Язык : Russian
Default : Нет
Forced : Нет
Текст #3
Идентификатор : 6
Формат : UTF-8
Идентификатор кодека : S_TEXT/UTF8
Идентификатор кодека/Информация : UTF-8 Plain Text
Заголовок : Full
Язык : English
Default : Нет
Forced : Нет
Текст #4
Идентификатор : 7
Формат : UTF-8
Идентификатор кодека : S_TEXT/UTF8
Идентификатор кодека/Информация : UTF-8 Plain Text
Заголовок : SDH
Язык : English
Default : Нет
Forced : Нет
Меню
00:00:00.000 : en:00:00:00.000
00:05:53.019 : en:00:05:53.019
00:09:04.627 : en:00:09:04.627
00:14:10.516 : en:00:14:10.516
00:20:32.481 : en:00:20:32.481
00:28:17.404 : en:00:28:17.404
00:34:46.209 : en:00:34:46.209
00:40:26.466 : en:00:40:26.466
00:48:07.134 : en:00:48:07.134
00:53:50.686 : en:00:53:50.686
01:00:37.175 : en:01:00:37.175
01:07:47.563 : en:01:07:47.563

Log x264

Скриншоты


Остальные раздачи этого фильма (2)
Благодарности релизеру (62)

Торрент:

Статус:

Размер:

Зарегистрирован   [ 2012-12-25 16:07 ]

проверено

5.85 GB

 
 Мнение о фильме (11)





Здрасте..
Мульт очень красочный с хорошим и глубоким 3Д
Дочери очень понравился.Вот только нет у нас дубляжа а одноголосый.
по сему прозьба ,дайте - Русский дубляж- отдельно скачать.
Спс
 

mixa
кинул на народ.ру
 

Вот клас .спасибо marik05
 

mixa
Пожалуйста,обращайся,не стесняйся.
 

Спасибо!!!
 

marik05
кинул на народ.ру
marik05, извини здесь нет ссылки на звук...
 
001_mailinator2_com Профиль 03-Янв-2013 01:49

Мульт просто супер как по сюжету так и по графике. Дочка 3 раза пересмотрела. 3Д отличное. Спасибо.
 

смотрела на ТВ Samsung. Качество хорошее. Качайте.
 

Смотрели на тв LG, очень понравилось наивный добрый мульт! спасибо
 
девочка на облаке Профиль 05-Фев-2013 18:19

Классное зд, дочка довольна ! Спасибо !
 

Суперное времяпрепровождение !