Торренты   
 
 


[Трейлер] Путь на запад: Наше !-путешествие / Due West: Our ! Journey [2012 г., Anamorph OverUnder]

Будете смотреть фильм?

Да   76%  76%  [ 20 ]
Нет   23%  23%  [ 6 ]

Всего проголосовало : 26

Рейтинг 3D:
3 голосов
6.3
Рейтинг фильма:
2 голосов
6.5
 
Вы должны быть авторизированы,
чтобы ставить оценки


Путь на запад: Наше сeкс-путешествиеDue West: Our Sех Journey Год выпуска: 2012
Страна: Гонконг
Жанр: драма, комедия, эротика
Продолжительность: 00:02:35
Перевод: отсутствует
Режиссер:
Марк Ву
В ролях:
Джастин Чунг, Грегори Вон, Марк Ву, Мо Ки Вэнь, Джессика Кидзаки, Даниелла Ван, Анджелина Чжан, Селия Квок, Джана Хо, Ева Ли
Описание:
Фильм описывает внутреннюю борьбу молодого человека, который пытается понять, что такое "любовь" и "похоть". Франки (Джастин Ченг) воспитывался в очень строгой семье. Его мать следит за дисциплиной в колледже для девочек, а его отец госслужащий. Как и любого подростка, его интересует !. В школе у него появляется "!-наставник" - Джинг (Грергори Вонг), который помогает ему познать взрослую жизнь. Франки, с его помощью, удается обратить на себя внимание одноклассницы и переспать с ней. После окончания школы Франки уезжает в США. Мотаясь по барам, Франки знакомится с Зетой (Селия Квок). Их отношения стабильны, но их проблема состоит в интимной жизни: Зета сексуально озабочена, что приводит к их расставанию. Франки вместе с Джингом отправляется в путешествие, целью которого является подцепить девушку в клубе и заняться с ней сексом.--Релиз группы:

Проверено на встроенном плейере ТВ LG 42LW4500
--Формат 3D: Anamorph OverUnder
Видео: AVC / 23,976 fps / 1920х1080p / 6805 Kbps

Скриншоты

MediaInfo

Общее
Уникальный идентификатор : 215502347482351725423177497429024463317 (0xA2203E0E984B1F20AC33A23F05E859D5)
Полное имя : G:\Trailer.DueWestOurSexJourney.3D.2012.BD3DRip.Half.OU.x264.AC3.3D-RuGroup.mkv
Формат : Matroska
Версия формата : Version 2
Размер файла : 141 Мбайт
Продолжительность : 2 м. 35 с.
Общий поток : 7596 Кбит/сек
Название фильма : rip by StarStranger release 3D-RuGroup
Дата кодирования : UTC 2012-12-28 12:47:43
Программа кодирования : mkvmerge v3.4.0 ('Rapunzel') сборка от May 15 2010 09:38:20
Библиотека кодирования : libebml v0.8.0 + libmatroska v0.9.0
Видео
Идентификатор : 1
Формат : AVC
Формат/Информация : Advanced Video Codec
Профиль формата : High@L4.1
Параметр CABAC формата : Да
Параметр ReFrames формата : 4 кадра
Идентификатор кодека : V_MPEG4/ISO/AVC
Продолжительность : 2 м. 35 с.
Битрейт : 6805 Кбит/сек
Ширина : 1920 пикселей
Высота : 1080 пикселей
Соотношение сторон : 16:9
Режим частоты кадров : Постоянный
Частота кадров : 23,976 кадра/сек
Цветовое пространство : YUV
Субдискретизация насыщенности : 4:2:0
Битовая глубина : 8 бит
Тип развёртки : Прогрессивная
Бит/(Пиксели*Кадры) : 0.137
Размер потока : 126 Мбайт (90%)
Библиотека кодирования : x264 core 128 r2216 198a7ea
Настройки программы : cabac=1 / ref=4 / deblock=1:-3:-3 / analyse=0x3:0x133 / me=umh / subme=9 / psy=1 / psy_rd=1.00:0.15 / mixed_ref=1 / me_range=32 / chroma_me=1 / trellis=2 / 8x8dct=1 / cqm=0 / deadzone=21,11 / fast_pskip=0 / chroma_qp_offset=-3 / threads=3 / lookahead_threads=1 / sliced_threads=0 / nr=0 / decimate=1 / interlaced=0 / bluray_compat=0 / constrained_intra=0 / bframes=8 / b_pyramid=2 / b_adapt=2 / b_bias=0 / direct=3 / weightb=1 / open_gop=0 / weightp=2 / keyint=250 / keyint_min=23 / scenecut=40 / intra_refresh=0 / rc_lookahead=60 / rc=crf / mbtree=1 / crf=18.0 / qcomp=0.70 / qpmin=0 / qpmax=69 / qpstep=4 / vbv_maxrate=50000 / vbv_bufsize=50000 / crf_max=0.0 / nal_hrd=none / ip_ratio=1.40 / aq=1:0.90
Default : Нет
Forced : Нет
Аудио
Идентификатор : 2
Формат : AC-3
Формат/Информация : Audio Coding 3
Расширение режима : CM (complete main)
Параметр Endianness формата : Big
Идентификатор кодека : A_AC3
Продолжительность : 2 м. 35 с.
Вид битрейта : Постоянный
Битрейт : 640 Кбит/сек
Каналы : 6 каналов
Расположение каналов : Front: L C R, Side: L R, LFE
Частота : 48,0 КГц
Битовая глубина : 16 бит
Метод сжатия : С потерями
Размер потока : 11,9 Мбайт (8%)
Default : Нет
Forced : Нет
Благодарности релизеру (5)

Торрент:

Статус:

Размер:

Зарегистрирован   [ 2012-12-28 17:37 ]

проверено

141 MB

 
 Мнение о фильме (2)





Блюрик уже давно есть... а вот перевод..(( увы
 

Что это ?