Торренты   
 
 


Братва из джунглей в 3Д, Трейлер / Delhi Safari in 3D, Trailer [2012 г., DCPrip, Anamorph OverUnder]

Рейтинг 3D:
Пока никто не голосовал
Рейтинг фильма:
1 голосов
9.0
 
Вы должны быть авторизированы,
чтобы ставить оценки


Братва из джунглей в 3Д, Трейлер
Delhi Safari in 3D, Trailer
--Год выпуска: 2012
Страна: Индия
Жанр: мультфильм, ...
Продолжительность: 00:02:39--Описание: Животные — обитатели национального парка возле Бомбея — встречают яркое солнечное утро под пение птиц. И вдруг идиллическую картинку дикой природы нарушает страшный грохот. Это, круша все на своем пути, джунгли атакует человек на бульдозере. На месте прекрасной рощи люди водружают табличку: здесь идет строительство жилого комплекса. Смертельно напуганные звери ночью собираются на совет. Юный леопард Юви горячо убеждает взрослых не бросать свои жилища. «Горячая голова» воин-обезьяна, Бахранжи, готов объявить смертельную войну незваным гостям, но Гуру в области конфликтологии, медведь Багга предлагает договориться с людьми по-хорошему. Одомашненный говорящий попугай Алекс решает присоединиться к друзьям, чтобы выступить переводчиком. Разношерстная компания пускается в долгое путешествие в столицу. Через горы и реки, на поездах и грузовиках, чтобы найти Главного Начальника и передать ему свое прошение. По дороге выясняется, что не только их дома, но и жилища тысяч других животных находятся в опасности. В финале захватывающего приключения различные животные становятся друзьями, поскольку их объединяет борьба за общий ДОМ.--Формат 3d: Anamorph OverUnder (левый ракурс верхний)
Качество: DCPrip
Контейнер: mkv
Видео: AVC / 1920х1080 / 24 fps / 8473 Kbps
Аудио: Русский / AC3 / 6 ch / 448 Kbps / 48 KHz--

MediaInfo:

Код:
General
Unique ID                      : 178087188196197902897791393724283630790 (0x85FA5847D1C94D0EA3E52E1DA78A34C6)
Complete name                  : L:\_3D\3D-Trailers\_2013\Trailer_DelhiSafari(3D)HalfOU-abq.mkv
Format                         : Matroska
Format version                 : Version 2
File size                      : 173 MiB
Duration                       : 2mn 39s
Overall bit rate               : 9 102 Kbps
Encoded date                   : UTC 2012-12-22 12:34:49
Writing application            : mkvmerge v4.0.0 ('The Stars were mine') сборка от Jun  6 2010 16:18:42
Writing library                : libebml v1.0.0 + libmatroska v1.0.0
Video
ID                             : 1
Format                         : AVC
Format/Info                    : Advanced Video Codec
Format profile                 : High@L4.1
Format settings, CABAC         : Yes
Format settings, ReFrames      : 4 frames
Codec ID                       : V_MPEG4/ISO/AVC
Duration                       : 2mn 39s
Bit rate                       : 8 473 Kbps
Width                          : 1 920 pixels
Height                         : 1 080 pixels
Display aspect ratio           : 16:9
Frame rate                     : 24.000 fps
Color space                    : YUV
Chroma subsampling             : 4:2:0
Bit depth                      : 8 bits
Scan type                      : Progressive
Bits/(Pixel*Frame)             : 0.170
Stream size                    : 161 MiB (93%)
Writing library                : x264 core 116 r2074 2641b9e
Encoding settings              : cabac=1 / ref=4 / deblock=1:-3:-3 / analyse=0x3:0x113 / me=umh / subme=9 / psy=1 / psy_rd=1.00:0.15 / mixed_ref=1 / me_range=16 / chroma_me=1 / trellis=2 / 8x8dct=1 / cqm=0 / deadzone=21,11 / fast_pskip=1 / chroma_qp_offset=-3 / threads=6 / sliced_threads=0 / nr=0 / decimate=1 / interlaced=0 / bluray_compat=0 / constrained_intra=0 / bframes=6 / b_pyramid=2 / b_adapt=2 / b_bias=0 / direct=3 / weightb=1 / open_gop=0 / weightp=2 / keyint=240 / keyint_min=24 / scenecut=40 / intra_refresh=0 / rc_lookahead=60 / rc=crf / mbtree=1 / crf=18.0 / qcomp=0.60 / qpmin=0 / qpmax=69 / qpstep=4 / vbv_maxrate=40000 / vbv_bufsize=40000 / crf_max=0.0 / nal_hrd=none / frame-packing=4 / ip_ratio=1.40 / aq=1:0.70
Language                       : English
Default                        : No
Forced                         : No
Audio
ID                             : 2
Format                         : AC-3
Format/Info                    : Audio Coding 3
Mode extension                 : CM (complete main)
Format settings, Endianness    : Big
Codec ID                       : A_AC3
Duration                       : 2mn 39s
Bit rate mode                  : Constant
Bit rate                       : 448 Kbps
Channel(s)                     : 6 channels
Channel positions              : Front: L C R, Side: L R, LFE
Sampling rate                  : 48.0 KHz
Bit depth                      : 16 bits
Compression mode               : Lossy
Stream size                    : 8.50 MiB (5%)
Language                       : Russian
Default                        : Yes
Forced                         : No

Скриншоты

Благодарности релизеру (8)

Торрент:

Статус:

Размер:

Зарегистрирован   [ 2012-12-29 14:20 ]

проверено

173 MB