Торренты   
 
 


Судья Дредд 3D[Горизонтальная анаморфная стереопара] / Dredd 3D[Half Side by Side] (Пит Трэвис) [2112 г., Anamorph SideBySide]

Рейтинг 3D:
12 голосов
6.6
Рейтинг фильма:
13 голосов
6.9
 
Вы должны быть авторизированы,
чтобы ставить оценки


Судья Дредд 3D[Горизонтальная анаморфная стереопара] / Dredd 3D[Half Side by Side]
Год выпуска: 2112
Страна: ЮАР, Великобритания
Жанр: Фантастика, боевик, триллер, криминал
Продолжительность: 1:35:51
Перевод: Любительский (одноголосый)[Lisitz]
Режиссер: Пит Трэвис
В ролях: Карл Урбан, Лена Хиди, Оливия Тирлби, Домналл Глисон, Санти Скинелли, Доби Опарей, Джейсон Коуп, Брендон Ливанос, Лэнгли Кирквуд, Рэки Айола
Описание: Будущее не столь красочно и великолепно, каким его представляют современные люди. Через несколько столетий человечество окажется на грани самоуничтожения, захлёбываясь в кровавых преступлениях, смертельных грехах и беспорядочных убийствах. Старую систему правосудия будет невозможно использовать — анархия, всеобщие беспорядки вынуждают ещё сохранившуюся власть, тем не менее, потерявшую всякий авторитет и легитимность, пойти на отчаянные крайние меры и ввести институт Судей — универсальных полицейских, правоприменителей, а по совместительству — и прокуроров, которые упростили бы весь процесс задержания, следствия и судебных тяжб, совмещая в одном лице все должности блюстителей и защитников правопорядка. Негодяи, подонки, вконец обнаглевшие и распоясавшиеся преступники и бандитские группировки всё равно не желают сдавать свои упрочившие позиции, опасаясь лишь одного — встречи с легендарным Судьёй Дреддом, пересажавшим или расстрелявшим не одну сотню насильников, террористов и жадных до человеческих страданий маньяков. В то время, как беспорядки и бесчинства бушуют на улицах города, Дредд спешит вернуть порядок, Закон и тишину, которым, кажется, уже никогда не обрести свою былую полноту, мощь и силу…
Доп. информация: Проверено на встроенном плейере LG575
Формат 3D: Anamorph SideBySide
Качество: BDrip
Порядок ракурсов: Левый ракурс первый
Видео: 1920x1080p (16:9), 23.976 fps, AVC MPEG-4 (x264), High@L4.1, ~13,6 Mbps avg, 0.278 bits/(pixel*frame)
Аудио#1:Русский, AC3, 48kHz, ~448kbps avg[Одноголосый(любительский)
Аудио#2:Английский, DTS, 48kHz~1510kbps avg[Оригинал]

Скриншоты





Для оценки 3D ч/б анаглиф



MediaInfo

Общее
Уникальный идентификатор : 198198010508697220094855059391749372673 (0x951B8C5FB9EF952F88175B198C4D3B01)
Полное имя : C:\ISo\Dredd_3D.BDrip.Half.SBS.mkv
Формат : Matroska
Версия формата : Version 2
Размер файла : 10,8 Гбайт
Продолжительность : 1 ч. 35 м.
Общий поток : 16,1 Мбит/сек
Дата кодирования : UTC 2012-12-30 03:51:58
Программа кодирования : mkvmerge v5.8.0 ('No Sleep / Pillow') built on Sep 2 2012 15:37:04
Библиотека кодирования : libebml v1.2.3 + libmatroska v1.3.0
Видео
Идентификатор : 1
Формат : AVC
Формат/Информация : Advanced Video Codec
Профиль формата : High@L4.1
Параметр CABAC формата : Да
Параметр ReFrames формата : 2 кадра
Идентификатор кодека : V_MPEG4/ISO/AVC
Продолжительность : 1 ч. 35 м.
Битрейт : 13,8 Мбит/сек
Ширина : 1920 пикселей
Высота : 1080 пикселей
Соотношение сторон : 16:9
Частота кадров : 23,976 кадра/сек
Цветовое пространство : YUV
Субдискретизация насыщенности : 4:2:0
Битовая глубина : 8 бит
Тип развёртки : Прогрессивная
Бит/(Пиксели*Кадры) : 0.278
Размер потока : 9,25 Гбайт (86%)
Библиотека кодирования : x264 core
Язык : English
Default : Да
Forced : Нет
Основные цвета : BT.709-5, BT.1361, IEC 61966-2-4, SMPTE RP177
Характеристики трансфера : BT.709-5, BT.1361
Коэффициенты матрицы : BT.709-5, BT.1361, IEC 61966-2-4 709, SMPTE RP177
Аудио #1
Идентификатор : 2
Формат : AC-3
Формат/Информация : Audio Coding 3
Расширение режима : CM (complete main)
Идентификатор кодека : A_AC3
Продолжительность : 1 ч. 35 м.
Вид битрейта : Постоянный
Битрейт : 448 Кбит/сек
Каналы : 6 каналов
Расположение каналов : Front: L C R, Side: L R, LFE
Частота : 48,0 КГц
Битовая глубина : 16 бит
Метод сжатия : С потерями
Размер потока : 307 Мбайт (3%)
Язык : Russian
Default : Да
Forced : Нет
Аудио #2
Идентификатор : 3
Формат : DTS
Формат/Информация : Digital Theater Systems
Идентификатор кодека : A_DTS
Продолжительность : 1 ч. 35 м.
Вид битрейта : Постоянный
Битрейт : 1510 Кбит/сек
Каналы : 6 каналов
Расположение каналов : Front: L C R, Side: L R, LFE
Частота : 48,0 КГц
Битовая глубина : 24 бит
Метод сжатия : С потерями
Размер потока : 1,01 Гбайт (9%)
Язык : English
Default : Нет
Forced : Нет
Меню
00:00:00.000 : en:00:00:00.000
00:05:43.552 : en:00:05:43.552
00:08:14.661 : en:00:08:14.661
00:14:17.356 : en:00:14:17.356
00:19:42.681 : en:00:19:42.681
00:24:09.323 : en:00:24:09.323
00:27:21.056 : en:00:27:21.056
00:36:01.284 : en:00:36:01.284
00:39:49.012 : en:00:39:49.012
00:48:26.946 : en:00:48:26.946
00:54:39.651 : en:00:54:39.651
01:00:57.237 : en:01:00:57.237
01:06:30.570 : en:01:06:30.570
01:12:01.651 : en:01:12:01.651
01:20:10.264 : en:01:20:10.264
01:27:00.382 : en:01:27:00.382
Благодарности релизеру (9)

Торрент:

Статус:

Размер:

Зарегистрирован   [ 2012-12-30 18:31 ]

поглощено

10.77 GB

 
Комментарии:





Судья Бред!!))
 

Это вроде новый фильм))Тут нет Сталлоне
 

фильм полное лайно смотреть такое тошно первый Дред был в сотни раз лутше
 

Ходил в кино! Фильм ОЧЕНЬ порадовал! Видеоряд совмещён с музыкой на 5+. У кого 5.1 (7.1) останутся очень доволны! Советую!!! Но лучше в дубляже. (IMHO)
 

Фильм шикарный.
 

Отменный фильмец!
 

в 2112 году могли и что-нибудь покруче снять! фильм неплохой , остается ждать нормального звука . для всяких доморощенных критиков : если вы не заметили , авторы рассказали нам совсем новую историю из мира судей ( не тупо ремейк ) , и на мой взгляд фильм получился довольно неплохой ( получше чем вспомнить все ) всех с наступающим 2013 годом !
 
евгения мурашко Профиль 31-Дек-2012 01:32

Ролик же выкладывали, здесь 3д никакое, или я ошибаюсь?
 

ошибаешся
 

Ошибаешся 3D норма
 

Для 3D неплохо,будем ремейк Винни Пуха ждать!
 

Palych
За релиз +5 а за оформление 2,не ленись выставить рип всегда успеешь важно и красиво оформить.
 

marik05, Это же"времянка", так что не напрягался,все равно скоро в архив.
 

marik05, тебе фильм важен или на оформление сидишь смотришь?
 

Топик был перенесен из форума Фильмы в форум Архив

Zagruzin