Торренты   
 
 


Универсальный солдат 4 / Universal Soldier: Day of Reckoning (Джон Хайамс / John Hyams) [2012 г., Anamorph OverUnder]

Рейтинг 3D:
41 голосов
6.1
Рейтинг фильма:
51 голосов
4.7
 
Вы должны быть авторизированы,
чтобы ставить оценки


Универсальный солдат 4 3Д/ Universal Soldier: Day of Reckoning 3D«Под их собственной командой»
Год выпуска: 2012
Страна: США (Foresight Unlimited, Signature Pictures)
Жанр: Боевик, Фантастика, Триллер
Продолжительность: 01:38:38
Перевод: Профессиональный (полное дублирование)
Русские субтитры: нет
Режиссер: Джон Хайамс / John Hyams-Роли исполняли (дублировали):-Джон - Скотт Эдкинс (Илья Исаев)
Магнус - Андрей Орловский
Люк Деверо - Жан-Клод Ван Дамм (Александр Рахленко)
Эндрю Скотт - Дольф Лундгрен (Михаил Георгиу)
Сара - Мария Боннер (Ирина Киреева)
Эрл - Крэйг Уолкер
Доктор Тимоти Брайди - Джеймс ДюМонт
Доктор Сю - Дэвид Дженсен (Никита Прозоровский)
Эмма - Одри П. Скотт
Агент Гормэн - Рас Блэквелл (Валерий Сторожик)
Рон Кастеллано - Дэйн Родс
Баунсер - Тони Жарро
Ларри - Эндрю СиккингОписание: Настоящее время. Программа «Unisol» по-прежнему актуальна и снова введена в эксплуатацию. Давним и непримиримым врагам времён Вьетнамской войны Эндрю Скотту и Люку Деверо суждено встретиться в очередной раз, дабы продолжить своё извечное противостояние и нескончаемую борьбу. Однако, новые опасности и трудности заставляют двух солдат на время объединиться пред лицом общей неприятности, что весьма ненадолго. Ясно одно: кровавый исход и брутальный финал неизбежен…

Техн. детали съёмки

Премьера: 23 августа 2012 (4 октября 2012)
Бюджет: $11 500 000
Кассовые сборы: $950 029
Релиз на DVD: 5 ноября 2012

. .
Проверено на встроенном плейере ТВ LG LW 650S
--Качество: BDrip
Контейнер: MKV
Формат 3D: Anamorph OverUnder / Вертикальная анаморфная стереопара
Порядок ракурсов: левый ракурс первый
Видео кодек: x264
Аудио кодек: AC3-Видео: AVC / 23,976 fps / 1920х1080p / 9145 Kbps
Аудио 1: - Русский / AC3 / 48 KHz / 5.1 ch / 448 Kbps (Дубляж R5)
Аудио 2: - Английский / AC3 / 48 KHz / 5.1 ch / 640 Kbps
Субтитры вшитые softsub (SRT):английские полные

MediaInfo

Общее
Уникальный идентификатор : 185892480929793422080957753093876010134 (0x8BD996EC7B1C89D593CF956C3B02CC96)
Полное имя : E:\3Д фильмы\Universal Soldier. Day of Reckoning (3D)2012.halfOU.1080p.AC3.(m@rik05).mkv
Формат : Matroska
Версия формата : Version 4 / Version 2
Размер файла : 8,14 Гбайт
Продолжительность : 1 ч. 53 м.
Общий поток : 10,2 Мбит/сек
Название фильма : Universal Soldier: Day of Reckoning (2012) 3D-RuGroup
Дата кодирования : UTC 2010-02-22 21:41:31
Программа кодирования : mkvmerge v5.9.0 ('On The Loose') built on Dec 9 2012 15:37:01
Библиотека кодирования : libebml v1.3.0 + libmatroska v1.4.0
Видео
Идентификатор : 1
Формат : AVC
Формат/Информация : Advanced Video Codec
Профиль формата : High@L4.1
Параметр CABAC формата : Да
Параметр ReFrames формата : 4 кадра
Идентификатор кодека : V_MPEG4/ISO/AVC
Продолжительность : 1 ч. 53 м.
Битрейт : 9145 Кбит/сек
Ширина : 1920 пикселей
Высота : 1080 пикселей
Соотношение сторон : 16:9
Режим частоты кадров : Постоянный
Частота кадров : 23,976 кадра/сек
Цветовое пространство : YUV
Субдискретизация насыщенности : 4:2:0
Битовая глубина : 8 бит
Тип развёртки : Прогрессивная
Бит/(Пиксели*Кадры) : 0.184
Размер потока : 7,26 Гбайт (89%)
Заголовок : rip by m@rik05
Библиотека кодирования : x264 core 116 r2074 2641b9e
Настройки программы : cabac=1 / ref=4 / deblock=1:-3:-3 / analyse=0x3:0x133 / me=umh / subme=9 / psy=1 / psy_rd=1.00:0.05 / mixed_ref=1 / me_range=16 / chroma_me=1 / trellis=2 / 8x8dct=1 / cqm=0 / deadzone=21,11 / fast_pskip=1 / chroma_qp_offset=-3 / threads=12 / sliced_threads=0 / nr=0 / decimate=1 / interlaced=0 / bluray_compat=0 / constrained_intra=0 / bframes=6 / b_pyramid=2 / b_adapt=2 / b_bias=0 / direct=3 / weightb=1 / open_gop=0 / weightp=2 / keyint=250 / keyint_min=23 / scenecut=40 / intra_refresh=0 / rc_lookahead=60 / rc=crf / mbtree=1 / crf=16.0 / qcomp=0.60 / qpmin=10 / qpmax=69 / qpstep=4 / vbv_maxrate=40000 / vbv_bufsize=40000 / crf_max=0.0 / nal_hrd=none / frame-packing=4 / ip_ratio=1.40 / aq=1:0.70
Язык : English
Default : Да
Forced : Нет
Аудио #1
Идентификатор : 2
Формат : AC-3
Формат/Информация : Audio Coding 3
Расширение режима : CM (complete main)
Параметр Endianness формата : Big
Идентификатор кодека : A_AC3
Продолжительность : 1 ч. 53 м.
Вид битрейта : Постоянный
Битрейт : 448 Кбит/сек
Каналы : 6 каналов
Расположение каналов : Front: L C R, Side: L R, LFE
Частота : 48,0 КГц
Битовая глубина : 16 бит
Метод сжатия : С потерями
Размер потока : 364 Мбайт (4%)
Заголовок : AC3 5.1 @ 448 kbps - Дублированный
Язык : Russian
Default : Да
Forced : Нет
Аудио #2
Идентификатор : 3
Формат : AC-3
Формат/Информация : Audio Coding 3
Расширение режима : CM (complete main)
Параметр Endianness формата : Big
Идентификатор кодека : A_AC3
Продолжительность : 1 ч. 53 м.
Вид битрейта : Постоянный
Битрейт : 448 Кбит/сек
Каналы : 6 каналов
Расположение каналов : Front: L C R, Side: L R, LFE
Частота : 48,0 КГц
Битовая глубина : 16 бит
Метод сжатия : С потерями
Размер потока : 364 Мбайт (4%)
Заголовок : AC3 5.1 @ 448 kbps - Оригинальный
Язык : English
Default : Нет
Forced : Нет
Текст
Идентификатор : 4
Формат : PGS
Режим смешивания : zlib
Идентификатор кодека : S_HDMV/PGS
Идентификатор кодека/Информация : The same subtitle format used on BDs/HD-DVDs
Заголовок : softsub (SRT)
Default : Нет
Forced : Нет
Меню
00:00:00.000 : en:00:00:00.000
00:06:36.104 : en:00:06:36.104
00:16:42.460 : en:00:16:42.460
00:23:33.078 : en:00:23:33.078
00:29:24.012 : en:00:29:24.012
00:37:57.192 : en:00:37:57.192
00:49:45.983 : en:00:49:45.983
00:59:27.230 : en:00:59:27.230
01:08:42.452 : en:01:08:42.452
01:18:18.903 : en:01:18:18.903
01:27:51.892 : en:01:27:51.892
01:34:59.861 : en:01:34:59.861

Log x264

:

Скриншоты


Остальные раздачи этого фильма (4)
Благодарности релизеру (13)

Торрент:

Статус:

Размер:

Зарегистрирован   [ 2013-01-02 19:32 ]

проверено

8.14 GB

 
 Мнение о фильме (11)





фильм отстой)))Хоть горизонталка,хоть вертикалка))Стал еще сильнее уважать Джеки Чана!!!Единственный "Старичок" который снимает без "ускорений" и других дешевых эффектов!!!Даже "Рэмбо4" более динамичнее!!!Вырос на фильмах "Двойной удар"и "Терминатор"!!!!Хотелось бы окунуться в прошлое,но не получилось(((((((
 

Когда я посмотрел этот фильм у меня был же такой кал как на последнем скрине!!!!
Раздающему спасибо за труды!!!!
 

Раздающему спасибо!
Фильм - кал, Ван Дамм стар(
Эх, судью Дреда бы без полос.
 

Фильм дебильный и бессмысленный! К тому же малобюджетный. Жль потраченных 30 минут просмотра
 

А мне фильм понравился нормальный средний боевичек! Драки хорошо эфектно поставлены. Посмотреть разочек можно, особо не напрягает 3D конешно не очень(
 

Как сюда вобще Скота Эдкинса занесло не понятно.
 

Фильм отстой, так и не досмотрел
 

Нормальный фильм,мне поравился.
 

Посмотрел этот фильм,скачал где то пару меяцев назад,начал смотреть бросил, смешно стало гвоздодером полицу, а он еще наблюдает как его бьют.
Досмотрел только сегодня.
Что могу сказать,жалко потраченного времени,лучше бы другой фильм полсмотрел еще раз. Денег конечно угрохали на бессмыслицу уйма. На Лугдгрена да Ван Дама вообще жалко смотреть было. Опозорились - два пенсионера строили из себя боевиков.Прикольно было как он лабораторию гомил, как в игре идешь и мочишь все что движется, знаешь когда тебя убьют уровень заново можно пройти. 3Д особо не нашол, на пол фильма досматривал в 2Д.
 

Dag13, Универсальный солдат 4 кроп уже месяц скачать не могу.уже сидов много накопилось, а скачано 0%
 

--Dag13, Универсальный солдат 4 кроп уже месяц скачать не могу. сидов 0!!! У Alexman такаяже БЕДА просто засада!!! будьте людьми встаньте на раздачу!!!