Торренты   
 
 


Универсальный солдат 4 3Д/ Universal Soldier: Day of Reckoning 3D [2012, BDrip, half1080p, Anamorph SideBySide]

Рейтинг 3D:
41 голосов
6.1
Рейтинг фильма:
51 голосов
4.7
 
Вы должны быть авторизированы,
чтобы ставить оценки


Универсальный солдат 4 3Д/ Universal Soldier: Day of Reckoning 3D
Год выпуска: 2012
Страна: США (Foresight Unlimited, Signature Pictures)
Жанр: Боевик, Фантастика, Триллер
Продолжительность: 01:53:38
Перевод: Профессиональный (полное дублирование)
Режиссер: Джон Хайамс
Роли исполняли (и дублировали):
Джон - Скотт Эдкинс (Илья Исаев)
Магнус - Андрей Орловский
Люк Деверо - Жан-Клод Ван Дамм (Александр Рахленко)
Эндрю Скотт - Дольф Лундгрен (Михаил Георгиу)
Сара - Мария Боннер (Ирина Киреева)
Эрл - Крэйг Уолкер
Доктор Тимоти Брайди - Джеймс ДюМонт
Доктор Сю - Дэвид Дженсен (Никита Прозоровский)
Эмма - Одри П. Скотт
Агент Гормэн - Рас Блэквелл (Валерий Сторожик)
Рон Кастеллано - Дэйн Родс
Баунсер - Тони Жарро
Ларри - Эндрю Сиккинг
Описание: Настоящее время. Программа «Unisol» по-прежнему актуальна и снова введена в эксплуатацию. Давним и непримиримым врагам времён Вьетнамской войны Эндрю Скотту и Люку Деверо суждено встретиться в очередной раз, дабы продолжить своё извечное противостояние и нескончаемую борьбу. Однако, новые опасности и трудности заставляют двух солдат на время объединиться пред лицом общей неприятности, что весьма ненадолго. Ясно одно: кровавый исход и брутальный финал неизбежен…
Качество: BDrip by Alexman©
Формат 3D: Anamorph SideBySide / Горизонтальная анаморфная стереопара
Порядок ракурсов: левый ракурс первый
Видео: AVC, High@L4.1, 1920x1080, 23.976 fps, 8 065 Kbps
Аудио:
№1 - Русский дублированный перевод / AC3 / 48 KHz / 5.1 ch / 448 Kbps
№2 - Английский оригинальный / AC3 / 48 KHz / 5.1 ch / 640 Kbps

MediaInfo

General
Unique ID : 173808899012515768832147050150808710879 (0x82C2605691541EE0A1331EB5AB1EEEDF)
Complete name : Universal Soldier. Day of Reckoning [Универсальный солдат 4] (2012) DUB hSbS 1080p by Alexman©.mkv
Format : Matroska
Format version : Version 4 / Version 2
File size : 7.41 GiB
Duration : 1h 53mn
Overall bit rate : 9 338 Kbps
Movie name : Universal Soldier. Day of Reckoning [Универсальный солдат 4] (2012) DUB hSbS 1080p by Alexman©
Encoded date : UTC 2010-02-22 21:41:31
Writing application : mkvmerge v5.9.0 ('On The Loose') built on Dec 9 2012 15:37:01
Writing library : libebml v1.3.0 + libmatroska v1.4.0
Video
ID : 1
Format : AVC
Format/Info : Advanced Video Codec
Format profile : High@L4.1
Format settings, CABAC : Yes
Format settings, ReFrames : 4 frames
Codec ID : V_MPEG4/ISO/AVC
Duration : 1h 53mn
Bit rate : 8 065 Kbps
Width : 1 920 pixels
Height : 1 080 pixels
Display aspect ratio : 16:9
Frame rate : 23.976 fps
Color space : YUV
Chroma subsampling : 4:2:0
Bit depth : 8 bits
Scan type : Progressive
Bits/(Pixel*Frame) : 0.162
Stream size : 6.40 GiB (86%)
Writing library : x264 core 128 r2216 198a7ea
Encoding settings : cabac=1 / ref=4 / deblock=1:-3:-3 / analyse=0x3:0x113 / me=umh / subme=9 / psy=1 / psy_rd=1.00:0.15 / mixed_ref=1 / me_range=32 / chroma_me=1 / trellis=2 / 8x8dct=1 / cqm=0 / deadzone=21,11 / fast_pskip=1 / chroma_qp_offset=-3 / threads=4 / lookahead_threads=1 / sliced_threads=0 / nr=0 / decimate=1 / interlaced=0 / bluray_compat=0 / constrained_intra=0 / bframes=4 / b_pyramid=2 / b_adapt=2 / b_bias=0 / direct=3 / weightb=1 / open_gop=0 / weightp=2 / keyint=250 / keyint_min=23 / scenecut=40 / intra_refresh=0 / rc_lookahead=60 / rc=crf / mbtree=1 / crf=17.0 / qcomp=0.60 / qpmin=0 / qpmax=69 / qpstep=4 / vbv_maxrate=40000 / vbv_bufsize=40000 / crf_max=0.0 / nal_hrd=none / ip_ratio=1.40 / aq=1:0.70
Language : English
Default : Yes
Forced : No
Audio #1
ID : 2
Format : AC-3
Format/Info : Audio Coding 3
Mode extension : CM (complete main)
Codec ID : A_AC3
Duration : 1h 53mn
Bit rate mode : Constant
Bit rate : 448 Kbps
Channel(s) : 6 channels
Channel positions : Front: L C R, Side: L R, LFE
Sampling rate : 48.0 KHz
Bit depth : 16 bits
Compression mode : Lossy
Stream size : 364 MiB (5%)
Title : Русский дублированный
Language : Russian
Default : Yes
Forced : Yes
Audio #2
ID : 3
Format : AC-3
Format/Info : Audio Coding 3
Mode extension : CM (complete main)
Codec ID : A_AC3
Duration : 1h 53mn
Bit rate mode : Constant
Bit rate : 640 Kbps
Channel(s) : 6 channels
Channel positions : Front: L C R, Side: L R, LFE
Sampling rate : 48.0 KHz
Bit depth : 16 bits
Compression mode : Lossy
Stream size : 520 MiB (7%)
Title : Английский
Language : English
Default : No
Forced : No

Скриншоты




Анимированные скриншоты для оценки 3Д-эффекта








Проверено на ТВ Samsung 40C7000 и Samsung 46D7000
Остальные раздачи этого фильма (4)
Благодарности релизеру (8)

Торрент:

Статус:

Размер:

Зарегистрирован   [ 2013-01-03 17:28 ]

проверено

7.41 GB

 
 Мнение о фильме (11)





фильм отстой)))Хоть горизонталка,хоть вертикалка))Стал еще сильнее уважать Джеки Чана!!!Единственный "Старичок" который снимает без "ускорений" и других дешевых эффектов!!!Даже "Рэмбо4" более динамичнее!!!Вырос на фильмах "Двойной удар"и "Терминатор"!!!!Хотелось бы окунуться в прошлое,но не получилось(((((((
 

Когда я посмотрел этот фильм у меня был же такой кал как на последнем скрине!!!!
Раздающему спасибо за труды!!!!
 

Раздающему спасибо!
Фильм - кал, Ван Дамм стар(
Эх, судью Дреда бы без полос.
 

Фильм дебильный и бессмысленный! К тому же малобюджетный. Жль потраченных 30 минут просмотра
 

А мне фильм понравился нормальный средний боевичек! Драки хорошо эфектно поставлены. Посмотреть разочек можно, особо не напрягает 3D конешно не очень(
 

Как сюда вобще Скота Эдкинса занесло не понятно.
 

Фильм отстой, так и не досмотрел
 

Нормальный фильм,мне поравился.
 

Посмотрел этот фильм,скачал где то пару меяцев назад,начал смотреть бросил, смешно стало гвоздодером полицу, а он еще наблюдает как его бьют.
Досмотрел только сегодня.
Что могу сказать,жалко потраченного времени,лучше бы другой фильм полсмотрел еще раз. Денег конечно угрохали на бессмыслицу уйма. На Лугдгрена да Ван Дама вообще жалко смотреть было. Опозорились - два пенсионера строили из себя боевиков.Прикольно было как он лабораторию гомил, как в игре идешь и мочишь все что движется, знаешь когда тебя убьют уровень заново можно пройти. 3Д особо не нашол, на пол фильма досматривал в 2Д.
 

Dag13, Универсальный солдат 4 кроп уже месяц скачать не могу.уже сидов много накопилось, а скачано 0%
 

--Dag13, Универсальный солдат 4 кроп уже месяц скачать не могу. сидов 0!!! У Alexman такаяже БЕДА просто засада!!! будьте людьми встаньте на раздачу!!!