Торренты   
 
 


В поисках Жу / Quest for Zhu [2012, BDrip, half1080p, Anamorph SideBySide]

Рейтинг 3D:
2 голосов
4.5
Рейтинг фильма:
2 голосов
7.5
 
Вы должны быть авторизированы,
чтобы ставить оценки


В поисках Жу / Quest for Zhu
Год выпуска: 2011
Страна: США
Жанр: мультфильм, детский
Продолжительность: 01:12:57
Перевод: Профессиональный (полное дублирование)
Режиссер: Боб Дусетте
Роли озвучивали:
Кэтлин Барр, Шон Кэмпбелл, Шеннон Чан-Кент, Йен Джеймс Корлетт, Эрин Мэтьюз, Джиллиан Майклс, Жан Рэбсон, Мэрайя Уилкерсон
Описание: Трогательный рассказ о четырех молодых хомячках, которые отправляются на поиски, чтобы найти Дворец Жу, где они полагают — все их мечты сбудутся.
Качество: BDrip by Alexman©
Формат 3D: Anamorph SideBySide / Горизонтальная анаморфная стереопара
Порядок ракурсов: левый ракурс первый
Видео: AVC, High@L4.1, 1920x1080, 23.976 fps, 10.6 Mbps
Аудио:
№1 - Русский дублированный перевод / AC3 / 48 KHz / 5.1 ch / 640 Kbps
№2 - Английский оригинальный / AC3 / 48 KHz / 5.1 ch / 640 Kbps

MediaInfo

General
Unique ID : 240100649331647288281497526395344590638 (0xB4A1B3F936F3B2DF908D2C822CA9172E)
Complete name : Quest for Zhu [В поисках Жу] (2011) DUB hSbS 1080p by Alexman©.mkv
Format : Matroska
Format version : Version 4 / Version 2
File size : 6.20 GiB
Duration : 1h 12mn
Overall bit rate : 12.2 Mbps
Movie name : Quest for Zhu [В поисках Жу] (2011) DUB hSbS 1080p by Alexman©
Encoded date : UTC 2010-02-22 21:41:31
Writing application : mkvmerge v5.9.0 ('On The Loose') built on Dec 9 2012 15:37:01
Writing library : libebml v1.3.0 + libmatroska v1.4.0
Video
ID : 1
Format : AVC
Format/Info : Advanced Video Codec
Format profile : High@L4.1
Format settings, CABAC : Yes
Format settings, ReFrames : 4 frames
Codec ID : V_MPEG4/ISO/AVC
Duration : 1h 12mn
Bit rate : 10.6 Mbps
Width : 1 920 pixels
Height : 1 080 pixels
Display aspect ratio : 16:9
Frame rate : 23.976 fps
Color space : YUV
Chroma subsampling : 4:2:0
Bit depth : 8 bits
Scan type : Progressive
Bits/(Pixel*Frame) : 0.214
Stream size : 5.42 GiB (87%)
Writing library : x264 core 128 r2216 198a7ea
Encoding settings : cabac=1 / ref=4 / deblock=1:-3:-3 / analyse=0x3:0x113 / me=umh / subme=9 / psy=1 / psy_rd=1.00:0.15 / mixed_ref=1 / me_range=32 / chroma_me=1 / trellis=2 / 8x8dct=1 / cqm=0 / deadzone=21,11 / fast_pskip=1 / chroma_qp_offset=-3 / threads=4 / lookahead_threads=1 / sliced_threads=0 / nr=0 / decimate=1 / interlaced=0 / bluray_compat=0 / constrained_intra=0 / bframes=4 / b_pyramid=2 / b_adapt=2 / b_bias=0 / direct=3 / weightb=1 / open_gop=0 / weightp=2 / keyint=250 / keyint_min=23 / scenecut=40 / intra_refresh=0 / rc_lookahead=60 / rc=crf / mbtree=1 / crf=17.0 / qcomp=0.60 / qpmin=0 / qpmax=69 / qpstep=4 / vbv_maxrate=40000 / vbv_bufsize=40000 / crf_max=0.0 / nal_hrd=none / ip_ratio=1.40 / aq=1:0.70
Language : English
Default : Yes
Forced : No
Audio #1
ID : 2
Format : AC-3
Format/Info : Audio Coding 3
Mode extension : CM (complete main)
Codec ID : A_AC3
Duration : 1h 12mn
Bit rate mode : Constant
Bit rate : 640 Kbps
Channel(s) : 6 channels
Channel positions : Front: L C R, Side: L R, LFE
Sampling rate : 48.0 KHz
Bit depth : 16 bits
Compression mode : Lossy
Stream size : 334 MiB (5%)
Title : Русский дублированный
Language : Russian
Default : Yes
Forced : Yes
Audio #2
ID : 3
Format : AC-3
Format/Info : Audio Coding 3
Mode extension : CM (complete main)
Codec ID : A_AC3
Duration : 1h 12mn
Bit rate mode : Constant
Bit rate : 640 Kbps
Channel(s) : 6 channels
Channel positions : Front: L C R, Side: L R, LFE
Sampling rate : 48.0 KHz
Bit depth : 16 bits
Compression mode : Lossy
Stream size : 334 MiB (5%)
Title : Английский
Language : English
Default : No
Forced : No

Скриншоты




Анимированные скриншоты для оценки 3Д-эффекта








Проверено на ТВ Samsung 40C7000 и Samsung 46D7000
Благодарности релизеру (6)

Торрент:

Статус:

Размер:

Зарегистрирован   [ 2013-01-04 14:15 ]

проверено

6.2 GB

 
 Мнение о фильме (3)





Чет хреновое 3D,судя по аним.скринам ((
 

Конверт что ли? 2D>3D что то скрины настораживают!
 

Кажется, что действительно конверт 2D>3D. В своё время, давненько, видел этот мультик в 2D, и о 3D-релизе не было ни слуху ни духу. А тут он, раз и образовался... )))