Торренты   
 
 


Герой Тай-цзи / Tai Chi Hero [2012 г., BDrip, Anamorph OverUnder]

Рейтинг 3D:
22 голосов
4.9
Рейтинг фильма:
21 голосов
5.7
 
Вы должны быть авторизированы,
чтобы ставить оценки


Герой Тай-цзи / TaiChi Hero
Часть 2
Год выпуска: 2012
Страна: Гонконг
Жанр: боевик, приключения
Продолжительность: 01:42:36
Озвучка: Любительская (двухголосая закадровая) den904 и DeadSno
Перевод на русский: Skyworker
Cубтитры: есть
Режиссер:
Стивен Фанг / Stephen Fung
В ролях:
Стивен Фанг, Юань Сяочао, Юэнь Бьяо, Тони Люн Ка Фай, Эдди Пэн, Шу Ци, Дэниэл Ву, Стэнли Фунг, Пьер Бурдо, Пол Филип Кларк, Кеони Эверингтон, Анджела Бейби
Описание:
Необыкновенно одарённого ребёнка Яна Лучаня все считают местным дурачком, тем не менее, мать Яна предлагает ему изучить боевые искусства. Подчинившись её желанию, Ян отправляется в отдалённую деревню Чэнь обучаться тай-цзи. В этой легендарной деревне все практикуют тай-цзи, и используют его в повседневной жизни. Однако жителям деревни запрещено раскрывать аспекты тай-цзи чужакам, и Ян узнал об этом на собственном опыте.--Релиз группы:

Перевод и озвучка:

Проверено на встроенном плейере ТВ LG 42LW4500
--
Качество: BDrip
Контейнер: MKV
Формат 3D: Anamorph OverUnder / Вертикальная анаморфная стереопара
Видео: AVC / 23,976 fps / 1920х1080p / 9481 Kbps
Аудио:
Русский / 48 KHz / AC3 / 6 ch / 640 kbps (den904 и DeadSno)
Мандаринский / AC3 / 48 KHz / 5.1 ch / 640 Kbps (отдельно на Narod.Ru)
Cубтитры: английские

Скриншоты

Анимированные скриншоты для оценки качества 3D

MediaInfo

Код:
Общее
Уникальный идентификатор                 : 210278287714692376757299848464843784919 (0x9E32200651A908BCA77C70440B29C2D7)
Полное имя                               : D:\3D-RuGroup\Фильмы\TaiChiHero.3D.2012.BD3DRip.Half.OU.x264.3D-RuGroup.mkv
Формат                                   : Matroska
Версия формата                           : Version 2
Размер файла                             : 7,40 Гбайт
Продолжительность                        : 1 ч. 42 м.
Общий поток                              : 10,3 Мбит/сек
Название фильма                          : TaiChi Hero 3D release 3D-RuGroup rip by StarStranger
Дата кодирования                         : UTC 2013-01-04 10:41:11
Программа кодирования                    : mkvmerge v3.4.0 ('Rapunzel') сборка от May 15 2010 09:38:20
Библиотека кодирования                   : libebml v0.8.0 + libmatroska v0.9.0
Видео
Идентификатор                            : 1
Формат                                   : AVC
Формат/Информация                        : Advanced Video Codec
Профиль формата                          : High@L4.1
Параметр CABAC формата                   : Да
Параметр ReFrames формата                : 4 кадра
Идентификатор кодека                     : V_MPEG4/ISO/AVC
Продолжительность                        : 1 ч. 42 м.
Битрейт                                  : 9481 Кбит/сек
Ширина                                   : 1920 пикселей
Высота                                   : 1080 пикселей
Соотношение сторон                       : 16:9
Режим частоты кадров                     : Постоянный
Частота кадров                           : 23,976 кадра/сек
Цветовое пространство                    : YUV
Субдискретизация насыщенности            : 4:2:0
Битовая глубина                          : 8 бит
Тип развёртки                            : Прогрессивная
Бит/(Пиксели*Кадры)                      : 0.191
Размер потока                            : 6,79 Гбайт (92%)
Заголовок                                : rip by StarStranger
Библиотека кодирования                   : x264 core 128 r2216 198a7ea
Настройки программы                      : cabac=1 / ref=4 / deblock=1:-3:-3 / analyse=0x3:0x133 / me=umh / subme=9 / psy=1 / psy_rd=1.00:0.15 / mixed_ref=1 / me_range=32 / chroma_me=1 / trellis=2 / 8x8dct=1 / cqm=0 / deadzone=21,11 / fast_pskip=0 / chroma_qp_offset=-3 / threads=3 / lookahead_threads=1 / sliced_threads=0 / nr=0 / decimate=1 / interlaced=0 / bluray_compat=0 / constrained_intra=0 / bframes=7 / b_pyramid=2 / b_adapt=2 / b_bias=0 / direct=3 / weightb=1 / open_gop=0 / weightp=2 / keyint=250 / keyint_min=23 / scenecut=40 / intra_refresh=0 / rc_lookahead=60 / rc=crf / mbtree=1 / crf=18.0 / qcomp=0.70 / qpmin=0 / qpmax=69 / qpstep=4 / vbv_maxrate=50000 / vbv_bufsize=50000 / crf_max=0.0 / nal_hrd=none / ip_ratio=1.40 / aq=1:0.90
Default                                  : Нет
Forced                                   : Нет
Аудио
Идентификатор                            : 2
Формат                                   : AC-3
Формат/Информация                        : Audio Coding 3
Расширение режима                        : CM (complete main)
Параметр Endianness формата              : Big
Идентификатор кодека                     : A_AC3
Продолжительность                        : 1 ч. 42 м.
Вид битрейта                             : Постоянный
Битрейт                                  : 640 Кбит/сек
Каналы                                   : 6 каналов
Расположение каналов                     : Front: L C R, Side: L R, LFE
Частота                                  : 48,0 КГц
Битовая глубина                          : 16 бит
Метод сжатия                             : С потерями
Размер потока                            : 470 Мбайт (6%)
Заголовок                                : DVO (den904, DeadSno) проект "Нет в Кино"
Язык                                     : Russian
Default                                  : Нет
Forced                                   : Нет
Текст
Идентификатор                            : 3
Формат                                   : UTF-8
Идентификатор кодека                     : S_TEXT/UTF8
Идентификатор кодека/Информация          : UTF-8 Plain Text
Заголовок                                : full
Язык                                     : English
Default                                  : Нет
Forced                                   : Нет
Меню
00:00:00.000                             : :01
00:07:54.307                             : :02
00:16:04.046                             : :03
00:25:40.998                             : :04
00:33:33.261                             : :05
00:43:38.950                             : :06
00:51:13.862                             : :07
00:59:28.607                             : :08
01:09:41.677                             : :09
01:16:03.350                             : :10
01:24:16.927                             : :11
01:34:30.456                             : :12
Убедительная просьба не переливать на рутрекер и на другие ресурсы без согласования с аплоадером.
Нулевой Тай-цзи / TaiChi Zero>>>ТУТ<<<
Благодарности релизеру (33)

Торрент:

Статус:

Размер:

Зарегистрирован   [ 2013-01-04 15:19 ]

проверено

7.4 GB

 
 Мнение о фильме (13)





Народ подскажите это 2 разных фильма или тоже??? герой тай цзи и нулевой тай цзи???)))))))
 

Rafle67, нулевой тай цзи - 1 часть, герой тай цзи - 2 часть.
 

StarStranger, пасиб разъяснил)))
 

Не знаю как кому, а мне фильмец не понравился(
 

Фильм норм.
 

спасибо раздающему,первый фильм понравился.если второй не хуже,то с удовольствием посмотрю
 

первая часть поинтереснее,перспектива есть вылеты не очень
 

полный отстой , не тратьте время , что первая , что вторая...,жалко даже место на диске для хранения .......
 

народ у каждого свой вкус, давайте здесь оставлять коментарии только по качеству 3д, есть ли смысл качать для просмотра
 

Судя по скринам 3D там очень плохое. Местами видно смазанные задники от конвертации. Местами вообще плоская картинка.
 

В 3Д особо не вглядывался, но оно есть. Да и фильм нормальный, кто любит подобные фильмы, тому понравится
 

На любителя, мне понравился... Классический кеттайский фильм, 3-д вроде норм:)
 

обновите раздачу плиз