Торренты   
 
 


Пушистые против Зубастых / The Outback [2012 г., BDrip, Anamorph OverUnder]

Рейтинг 3D:
17 голосов
6.1
Рейтинг фильма:
15 голосов
5.7
 
Вы должны быть авторизированы,
чтобы ставить оценки


© Закрыто правообладателем
Год выпуска: 2012
Страна: Корея Южная, США
Жанр: мультфильм, приключения, семейный
Продолжительность: 01:25:32
Озвучка: Профессиональный (полное дублирование) [Лицензия]
Cубтитры: нет
Режиссер: Кюнг Хо Ли
Роли озвучивали: Чарли Бьюли, Алан Камминг, Тим Карри, Крис Эджерли, Эрик Лопез, Норм МакДональд, Брэт МакКензи, Нолан Норт, Филип Проктор, Дженни Пулос
Описание:
Нелегко живется на свете если ты белый, а все остальные — серые. Так и белый коала Джонни страдает от своей особенности. А если ты особенный — то тебе, ясное дело, прямая дорога в цирк! Но любовь публики недолговечна, особенно, если кроме цвета шерсти, тебе нечем похвастаться. Джонни мечтает стать крутым суперегероем и ему представится такой шанс! Для этого всего лишь нужно разогнать стаю кровожадных псов, опрокинуть горы, перебраться через пропасть, перехитрить гигантских змей, приручить тасманского дьявола и победить гигантского крокодила! И что же в награду? Ну, конечно, любовь прекрасной дамы!--Релиз группы:

Проверено на встроенном плейере ТВ LG 42LW4500
--
Качество: BDrip
Контейнер: MKV
Формат 3D: Anamorph OverUnder / Вертикальная анаморфная стереопара
Видео: AVC / 23,976 fps / 1920х1080p / 8993 Kbps
Аудио:
Русский / 48 KHz / AC3 / 6 ch / 448 kbps

Скриншоты

Анимированные скриншоты для оценки качества 3D

MediaInfo

Код:
Общее
Уникальный идентификатор                 : 236225676898666253412550613764192837410 (0xB1B76915092059AEAF69CEF132379F22)
Полное имя                               : D:\3D-RuGroup\Мультфильмы\TheOutback.3D.2012.BD3DRip.Half.OU.x264.3D-RuGroup.mkv
Формат                                   : Matroska
Версия формата                           : Version 2
Размер файла                             : 5,76 Гбайт
Продолжительность                        : 1 ч. 25 м.
Общий поток                              : 9632 Кбит/сек
Название фильма                          : The Outback 3D release 3D-RuGroup rip by StarStranger
Дата кодирования                         : UTC 2013-01-06 17:53:18
Программа кодирования                    : mkvmerge v3.4.0 ('Rapunzel') сборка от May 15 2010 09:38:20
Библиотека кодирования                   : libebml v0.8.0 + libmatroska v0.9.0
Видео
Идентификатор                            : 1
Формат                                   : AVC
Формат/Информация                        : Advanced Video Codec
Профиль формата                          : High@L4.1
Параметр CABAC формата                   : Да
Параметр ReFrames формата                : 4 кадра
Идентификатор кодека                     : V_MPEG4/ISO/AVC
Продолжительность                        : 1 ч. 25 м.
Битрейт                                  : 8993 Кбит/сек
Ширина                                   : 1920 пикселей
Высота                                   : 1080 пикселей
Соотношение сторон                       : 16:9
Режим частоты кадров                     : Постоянный
Частота кадров                           : 23,976 кадра/сек
Цветовое пространство                    : YUV
Субдискретизация насыщенности            : 4:2:0
Битовая глубина                          : 8 бит
Тип развёртки                            : Прогрессивная
Бит/(Пиксели*Кадры)                      : 0.181
Размер потока                            : 5,37 Гбайт (93%)
Заголовок                                : rip by StarStranger
Библиотека кодирования                   : x264 core 129 r2230 1cffe9f
Настройки программы                      : cabac=1 / ref=4 / deblock=1:-3:-3 / analyse=0x3:0x133 / me=umh / subme=10 / psy=1 / psy_rd=1.00:0.15 / mixed_ref=1 / me_range=48 / chroma_me=1 / trellis=2 / 8x8dct=1 / cqm=0 / deadzone=21,11 / fast_pskip=0 / chroma_qp_offset=-3 / threads=3 / lookahead_threads=1 / sliced_threads=0 / nr=0 / decimate=1 / interlaced=0 / bluray_compat=0 / constrained_intra=0 / bframes=7 / b_pyramid=2 / b_adapt=2 / b_bias=0 / direct=3 / weightb=1 / open_gop=0 / weightp=2 / keyint=250 / keyint_min=23 / scenecut=40 / intra_refresh=0 / rc_lookahead=60 / rc=crf / mbtree=1 / crf=18.0 / qcomp=0.70 / qpmin=0 / qpmax=69 / qpstep=4 / vbv_maxrate=50000 / vbv_bufsize=50000 / crf_max=0.0 / nal_hrd=none / frame-packing=4 / ip_ratio=1.40 / aq=1:0.90
Default                                  : Нет
Forced                                   : Нет
Аудио
Идентификатор                            : 2
Формат                                   : AC-3
Формат/Информация                        : Audio Coding 3
Расширение режима                        : CM (complete main)
Параметр Endianness формата              : Big
Идентификатор кодека                     : A_AC3
Продолжительность                        : 1 ч. 25 м.
Вид битрейта                             : Постоянный
Битрейт                                  : 448 Кбит/сек
Каналы                                   : 6 каналов
Расположение каналов                     : Front: L C R, Side: L R, LFE
Частота                                  : 48,0 КГц
Битовая глубина                          : 16 бит
Метод сжатия                             : С потерями
Размер потока                            : 274 Мбайт (5%)
Заголовок                                : Dub
Язык                                     : Russian
Default                                  : Нет
Forced                                   : Нет
Меню
00:00:00.000                             : :01
00:07:13.850                             : :02
00:15:34.600                             : :03
00:23:00.921                             : :04
00:32:05.215                             : :05
00:39:12.642                             : :06
00:47:37.313                             : :07
00:55:44.132                             : :08
01:02:44.010                             : :09
01:11:29.702                             : :10
01:20:03.424                             : :11
01:21:55.369                             : :12
Остальные раздачи этого фильма (3)
Благодарности релизеру (22)

Торрент:

Статус:

Размер:

Зарегистрирован   [ 2013-01-06 22:43 ]

проверено

5.76 GB

 
 Мнение о фильме (1)





спасибо большое за фильм! фильм красочный и хорошее 3D.. наконец-то посмотрели с женой, видели его рекламку в ролике от LG (в 3D) прям ждали :)