Торренты   
 
 


Судья Дредд 3D / Dredd 3D [2012 г., BDrip, Anamorph OverUnder]

Рейтинг 3D:
135 голосов
6.5
Рейтинг фильма:
138 голосов
6.6
 
Вы должны быть авторизированы,
чтобы ставить оценки


© Закрыто правообладателем
Год выпуска: 2012
Страна: ЮАР, Великобритания
Жанр: фантастика, боевик, триллер, криминал
Продолжительность: 01:35:52
Перевод:
Профессиональный (полное дублирование)
Одноголосый закадровый (Ю.Сербин)
Многолосый закадровый (Омикрон)
Cубтитры: есть
Режиссер: Пит Трэвис
В ролях: Карл Урбан, Оливия Тирлби, Лина Хиди, Вуд Харрис, Рэйчел Вуд, Андил Мнгади, Портес Ксандо Стинкамп, Джейсон Коуп, Эмма Бреши, Рэки Айола
Описание:
Будущее не столь красочно и великолепно, каким его представляют современные люди. Через несколько столетий человечество окажется на грани самоуничтожения, захлёбываясь в кровавых преступлениях, смертельных грехах и беспорядочных убийствах. Старую систему правосудия будет невозможно использовать — анархия, всеобщие беспорядки вынуждают ещё сохранившуюся власть, тем не менее, потерявшую всякий авторитет и легитимность, пойти на отчаянные крайние меры и ввести институт Судей — универсальных полицейских, правоприменителей, а по совместительству — и прокуроров, которые упростили бы весь процесс задержания, следствия и судебных тяжб, совмещая в одном лице все должности блюстителей и защитников правопорядка.
Негодяи, подонки, вконец обнаглевшие и распоясавшиеся преступники и бандитские группировки всё равно не желают сдавать свои упрочившие позиции, опасаясь лишь одного — встречи с легендарным Судьёй Дреддом, пересажавшим или расстрелявшим не одну сотню насильников, террористов и жадных до человеческих страданий маньяков. В то время, как беспорядки и бесчинства бушуют на улицах города, Дредд спешит вернуть порядок, Закон и тишину, которым, кажется, уже никогда не обрести свою былую полноту, мощь и силу…

Благодарности

Перевод Юрия Сербина выполнен в рамках сервиса от HDCLUB "Озвучивание" совместно с DVD100.ru и E180.ru. Спонсоры HDCLUB: Turko, tambov68, Gans437, Loki1982, GKillah, ultrajeka, Dervish, ZeRoNe; Спонсоры E180: пуля, Serene, Slimka, tide, fen, drichsh, Tio, dr_akula, vik19662007, carnivale, Andrey_Tula, uchitel538, Ramis, Foots, YoGuRt-82, STONECOLD, dir, Bilko, Iceman.
За заказ украинской озвучки (Студия "Омикрон") спасибо:
lionlegion, Pit33, Володимир, TyNeLo, uarenik, legat, 310763, buddilnik, orest_music, funtruhnet, Uptown, olfed111, vifilo, sigito, Oleksandr, ron_, Рудобородий, lomkovsky, Navarra, igor911, talantgor, Nevestiuk, shambig, velizariy, Batiaruk, vovaz, boblv, shangri-la, leshkm, 5E_koleco, webamator.org.ua, sanekjn, YURIYUXO, stadion.lviv.ua, SunWind, wtr, dimaandr, Xobit, Kalynka Rosso, nazar, knockout, Кость, dimic, Infoserfer, Кумяр, TIPERUS, antoxxa082, yarik_ratnik, nastik., TriVVet, IvanB123456, Roni, Петро21, albioriks, denskipper, avtoboss, yozhh, vdima82, steeple, Gotenot, Лілія, nik, ameks, mikolay, @knygoyid, sashaiv74, Кузьма72, jona, Olegatr, М_а_м_а_й, have got, TarasD, GodSaveUkraine, shtein, Gxost, Олександр, Sturm_UA, Jonsen, lynxnake, OlegVysh, Demetrios, Sirpent, tarand, zalexxx, barbarian, Tank302, Неля Глушко, chaliy, merlin_zaraza, cyclone2000, rybanok27, alex4e, Ingvar, Aussie, loiknazar, olfed111, Sensetivity, cyberprostir, Est, Sepoolka, bandera77, Vikk, Warrog, GrossQX, zavzyata, ValicV, Myshko3007, ghost392, Soarus12345, Fizia, vladyk, Xshot, viter07, Yellow_man, iro4ka_skin, lerk, MisterR, tumick, Leksyk, Chirka, somnambula, MarianB, Mr Yuran, nelester, panama58, Лунсар, Sheldon, stalker_cv, yg, Nikson, fishMD, nemos, hummer.
--Релиз группы:

Проверено на встроенном плейере ТВ LG 42LW4500
--
Качество: BDrip
Контейнер: MKV
Формат 3D: Anamorph OverUnder / Вертикальная анаморфная стереопара
Порядок ракурсов: левый ракурс первый
Видео кодек: x264
Аудио кодек: AC3
Видео: AVC / 23,976 fps / 1920х1080p / 19,1 Mbps
Аудио:
Русский / 48 KHz / AC3 / 6 ch / 640 kbps (Дубляж)
Русский / 48 KHz / AC3 / 6 ch / 640 kbps (Одноголосый закадровый, Ю.Сербин)
Украинский / 48 KHz / AC3 / 6 ch / 448 kbps (Многоголосый закадровый, Омикрон)
Английский / AC3 / 48 KHz / 5.1 ch / 640 Kbps
Cубтитры: английские

Скриншоты

Анимированные скриншоты для оценки качества 3D

MediaInfo

Код:
Общее
Уникальный идентификатор                 : 224457832826692332128879875865769680579 (0xA8DD019300747255BF3A4BE657241EC3)
Полное имя                               : D:\3D-RuGroup\Фильмы\Dredd.3D.2012.BD3Drip.Half.OU.x264.3D-RuGroup.mkv
Формат                                   : Matroska
Версия формата                           : Version 2
Размер файла                             : 14,6 Гбайт
Продолжительность                        : 1 ч. 35 м.
Общий поток                              : 21,9 Мбит/сек
Название фильма                          : Dredd 3D release 3D-RuGroup rip by StarStranger
Дата кодирования                         : UTC 2013-01-26 21:07:12
Программа кодирования                    : mkvmerge v3.4.0 ('Rapunzel') сборка от May 15 2010 09:38:20
Библиотека кодирования                   : libebml v0.8.0 + libmatroska v0.9.0
Видео
Идентификатор                            : 1
Формат                                   : AVC
Формат/Информация                        : Advanced Video Codec
Профиль формата                          : High@L4.1
Параметр CABAC формата                   : Да
Параметр ReFrames формата                : 4 кадра
Идентификатор кодека                     : V_MPEG4/ISO/AVC
Продолжительность                        : 1 ч. 35 м.
Битрейт                                  : 19,1 Мбит/сек
Ширина                                   : 1920 пикселей
Высота                                   : 1080 пикселей
Соотношение сторон                       : 16:9
Режим частоты кадров                     : Постоянный
Частота кадров                           : 23,976 кадра/сек
Цветовое пространство                    : YUV
Субдискретизация насыщенности            : 4:2:0
Битовая глубина                          : 8 бит
Тип развёртки                            : Прогрессивная
Бит/(Пиксели*Кадры)                      : 0.384
Размер потока                            : 12,8 Гбайт (87%)
Заголовок                                : rip by StarStranger
Библиотека кодирования                   : x264 core 128 r2216 198a7ea
Настройки программы                      : cabac=1 / ref=4 / deblock=1:-3:-3 / analyse=0x3:0x133 / me=umh / subme=10 / psy=1 / psy_rd=1.00:0.15 / mixed_ref=1 / me_range=48 / chroma_me=1 / trellis=2 / 8x8dct=1 / cqm=0 / deadzone=21,11 / fast_pskip=0 / chroma_qp_offset=-3 / threads=3 / lookahead_threads=1 / sliced_threads=0 / nr=0 / decimate=1 / interlaced=0 / bluray_compat=0 / constrained_intra=0 / bframes=7 / b_pyramid=2 / b_adapt=2 / b_bias=0 / direct=3 / weightb=1 / open_gop=0 / weightp=2 / keyint=250 / keyint_min=23 / scenecut=40 / intra_refresh=0 / rc_lookahead=60 / rc=crf / mbtree=1 / crf=17.0 / qcomp=0.70 / qpmin=0 / qpmax=69 / qpstep=4 / vbv_maxrate=50000 / vbv_bufsize=50000 / crf_max=0.0 / nal_hrd=none / ip_ratio=1.40 / aq=1:0.90
Default                                  : Нет
Forced                                   : Нет
Аудио #1
Идентификатор                            : 2
Формат                                   : AC-3
Формат/Информация                        : Audio Coding 3
Расширение режима                        : CM (complete main)
Параметр Endianness формата              : Big
Идентификатор кодека                     : A_AC3
Продолжительность                        : 1 ч. 35 м.
Вид битрейта                             : Постоянный
Битрейт                                  : 640 Кбит/сек
Каналы                                   : 6 каналов
Расположение каналов                     : Front: L C R, Side: L R, LFE
Частота                                  : 48,0 КГц
Битовая глубина                          : 16 бит
Метод сжатия                             : С потерями
Размер потока                            : 439 Мбайт (3%)
Заголовок                                : Dub BD RUS - "Пифагор"
Язык                                     : Russian
Default                                  : Нет
Forced                                   : Нет
Аудио #2
Идентификатор                            : 3
Формат                                   : AC-3
Формат/Информация                        : Audio Coding 3
Расширение режима                        : CM (complete main)
Параметр Endianness формата              : Big
Идентификатор кодека                     : A_AC3
Продолжительность                        : 1 ч. 35 м.
Вид битрейта                             : Постоянный
Битрейт                                  : 640 Кбит/сек
Каналы                                   : 6 каналов
Расположение каналов                     : Front: L C R, Side: L R, LFE
Частота                                  : 48,0 КГц
Битовая глубина                          : 16 бит
Метод сжатия                             : С потерями
Размер потока                            : 439 Мбайт (3%)
Заголовок                                : Одноголосый закадровый, Ю.Сербин
Язык                                     : Russian
Default                                  : Нет
Forced                                   : Нет
Аудио #3
Идентификатор                            : 4
Формат                                   : AC-3
Формат/Информация                        : Audio Coding 3
Расширение режима                        : CM (complete main)
Параметр Endianness формата              : Big
Идентификатор кодека                     : A_AC3
Продолжительность                        : 1 ч. 35 м.
Вид битрейта                             : Постоянный
Битрейт                                  : 448 Кбит/сек
Каналы                                   : 6 каналов
Расположение каналов                     : Front: L C R, Side: L R, LFE
Частота                                  : 48,0 КГц
Битовая глубина                          : 16 бит
Метод сжатия                             : С потерями
Размер потока                            : 307 Мбайт (2%)
Заголовок                                : Многоголосый закадровый, Омикрон
Язык                                     : Ukrainian
Default                                  : Нет
Forced                                   : Нет
Аудио #4
Идентификатор                            : 5
Формат                                   : AC-3
Формат/Информация                        : Audio Coding 3
Расширение режима                        : CM (complete main)
Параметр Endianness формата              : Big
Идентификатор кодека                     : A_AC3
Продолжительность                        : 1 ч. 35 м.
Вид битрейта                             : Постоянный
Битрейт                                  : 640 Кбит/сек
Каналы                                   : 6 каналов
Расположение каналов                     : Front: L C R, Side: L R, LFE
Частота                                  : 48,0 КГц
Битовая глубина                          : 16 бит
Метод сжатия                             : С потерями
Размер потока                            : 439 Мбайт (3%)
Заголовок                                : original
Язык                                     : English
Default                                  : Нет
Forced                                   : Нет
Текст
Идентификатор                            : 6
Формат                                   : UTF-8
Идентификатор кодека                     : S_TEXT/UTF8
Идентификатор кодека/Информация          : UTF-8 Plain Text
Язык                                     : English
Default                                  : Нет
Forced                                   : Нет
Меню
00:00:00.000                             : en:00:00:00.000
00:05:43.552                             : en:00:05:43.552
00:08:14.661                             : en:00:08:14.661
00:14:17.356                             : en:00:14:17.356
00:19:42.681                             : en:00:19:42.681
00:24:09.323                             : en:00:24:09.323
00:27:21.056                             : en:00:27:21.056
00:36:01.284                             : en:00:36:01.284
00:39:49.012                             : en:00:39:49.012
00:48:26.946                             : en:00:48:26.946
00:54:39.651                             : en:00:54:39.651
01:00:57.237                             : en:01:00:57.237
01:06:30.570                             : en:01:06:30.570
01:12:01.651                             : en:01:12:01.651
01:20:10.264                             : en:01:20:10.264
01:27:00.382                             : en:01:27:00.382
27.01.2013 - Релиз обновлён - добавлены русская (дубляж) и украинская (многоголосая) дорожки. Желающие, скачайте заново торрент-файл.
Остальные раздачи этого фильма (3)
Благодарности релизеру (40)

Торрент:

Статус:

Размер:

Зарегистрирован   [ 2013-01-27 11:04 ]

© закрыто правообладателем

14.65 GB

 
 Мнение о фильме (51)

Пред.  1, 2, 3  След.






Отличный фильм и достойное 3D !
 

Нормальный фильм! Взят отдельно снятый сюжет и раскручен! Просто вы зажрались походу, господа!!! Надо понимать, что вы ждёте от фильма, тем более от ремейка. Второго такого же Судью не снимут - это однозначно и дураку понятно! Касательно этого фильма - мне понравился. Смотрел сначала в кинотеатре, зачёт! Раздающему - респект!
 

спасибо.мне фильм понравился
 

Фильм смотрел ради 3D,поначалу вроде ничего,потом привык и не замечал.
 

Присоединяюсь ко всем кто сказал, что фильм шлак :) Автору пасиба.
 

3D здесь ерундовое. Явно снималось не двумя камерами, а делалось просто на компьюторе. Картина плоская до ужасов только в некоторых местах чувствуется 3D эффект.
 

Фильм понравился.Советую всем
 

Терпения хватило минут на 5. Снести?
 

Мне музыкальное сопровождение особенно понравилось. Советую посмотреть
 

Фильм полный треш, Тарантина отдыхает. Оставил неплохое ощущение, намного лучше чем после "Вспомнить все". Хорошо, что к это не ремейк а типа-приквел. Глубокого смысла нет, но это и не "Отверженные" Гюго. Фильм в коллекцию для фона...
 

Отличный фильм! Смотрел в кино, скачаю в коллекцию. Спасибо за релиз!
 

Согласен, фильм отличный! Зрелищный и интересный, в меру мясной. А вот 3D действительно разочаровало в этом фильме: ни глубины, ни вылетов...
 

Ничего хорошо, в прочем и плохого, сказать не могу мои оценки говорят сами за себя...
 

Фильм содержательный и смотрится с интересом. Оценки 6.1 и 6.1 мне кажутся заниженными. Фильм о возможных решениях (экстремальных, но действенных) знакомых нам проблем. 3D эффект создаёт ощущение реальности, но не отвлекает внимание от происходящих событий внезапными проявлениями.
 

что за шум? это просто КИНО! без всяких там заумничаний
 

Я любитель просмотра фильмов, в процессе которых мозг отдыхает. Но сей опус после фильма со Сталлоне семье даже показывать не стал. Сказал, что г... и снёс.
 

Лучше, чем ожидал. Хороший звук, качественно снят...
 

много крови
 

на мой взгляд фильм достаточно посредственный, зд не очень. весь фильм хотелось узнать как выглядит главный герой, но,увы...сюжета практически нет, слишком много крови, фильм берет исключительно спецэффектами.
 

Фильм отличный,крови мало,бывает и больше про Сталлоне фильм для детей ,этот для взрослых,Аналог фильм Рейд только тот по круче.3d с пивом покатит.Здесь снялся ржавого брат близнец который живет за границей.
 

Страница 2 из 3

Пред.  1, 2, 3  След.