Торренты   
 
 


Пушистые против Зубастых в 3Д / The Outback 3D (Кюнг Хо Ли / Kyung Ho Lee) [2012, Мультфильм, Приключения, Семейный, BDrip, 1080p] Half SideBySide / Горизонтальная анаморфная стереопара

Рейтинг 3D:
17 голосов
6.1
Рейтинг фильма:
15 голосов
5.7
 
Вы должны быть авторизированы,
чтобы ставить оценки


© Закрыто правообладателем
Год выпуска: 2012
Страна: Южная Корея, США (Lotte Entertainment, Digiart Production, Animation Picture Company)
Жанр: Мультфильм, Приключения, Семейный
Продолжительность: 01:25:32
Перевод: Профессиональный (дублированный)
Русские субтитры: нет
Режиссер: Кюнг Хо Ли / Kyung Ho Lee-Роли озвучивали -Чарли Бьюли, Алан Камминг, Тим Карри, Крис Эджерли, Эрик Лопез, Норм МакДональд, Брэт МакКензи, Нолан Норт, Филип Проктор, Дженни Пулос, Нил Росс, Роб Шнайдер, Ивонн СтраховскиРоли дублировали -Владимир Рыбальченко, Александр Воронов, Татьяна Шарко, Александр Дасевич-Описание: Нелегко живется на свете если ты белый, а все остальные — серые. Так и белый коала Джонни страдает от своей особенности. А если ты особенный — то тебе, ясное дело, прямая дорога в цирк! Но любовь публики недолговечна, особенно, если кроме цвета шерсти, тебе нечем похвастаться. Джонни мечтает стать крутым суперегероем и ему представится такой шанс! Для этого всего лишь нужно разогнать стаю кровожадных псов, опрокинуть горы, перебраться через пропасть, перехитрить гигантских змей, приручить тасманского дьявола и победить гигантского крокодила! И что же в награду? Ну, конечно, любовь прекрасной дамы! -Премьера: 12 января 2012 (25 октября 2012)
Бюджет: $5 300 000
Кассовые сборы: $?
Релиз на DVD и Blu-Ray:27 ноября 2012, «Флагман-Трейд»,

. .
Проверено на встроенном плейере ТВ LG LW 650S
- Доп. информация по релизу: За источник спасибо и mebelrus!-Качество: BDrip
Контейнер: MKV-Формат 3D: Anamorph SideBySide / Горизонтальная анаморфная стереопара
Порядок ракурсов: левый ракурс первый
Видео кодек: x264
Аудио кодек: AC3-Видео: AVC / 23,976 fps / 1920х1080p / 10,7 Mbps
Аудио: - Русский / AC3 / 48 KHz / 5.1 ch / 448 Kbps Дубляж(BD 3D)
Субтитры: нет

MediaInfo

Общее
Уникальный идентификатор : 226023304091461030451447715904194497134 (0xAA0A81444421FB41B63B94B186BA4A6E)
Полное имя : E:\3Д мультики\The Outback 3D (2012).BDRip1080p.Half.SBS.x264.AC3.3D-RuGroup(m@rik05).mkv
Формат : Matroska
Версия формата : Version 4 / Version 2
Размер файла : 6,81 Гбайт
Продолжительность : 1 ч. 25 м.
Общий поток : 11,4 Мбит/сек
Название фильма : The Outback 3D (2012) 3D-RuGroup (m@rik05)
Дата кодирования : UTC 2010-02-22 21:41:31
Программа кодирования : mkvmerge v5.9.0 ('On The Loose') built on Dec 9 2012 15:37:01
Библиотека кодирования : libebml v1.3.0 + libmatroska v1.4.0
Видео
Идентификатор : 1
Формат : AVC
Формат/Информация : Advanced Video Codec
Профиль формата : High@L4.1
Параметр CABAC формата : Да
Параметр ReFrames формата : 4 кадра
Идентификатор кодека : V_MPEG4/ISO/AVC
Продолжительность : 1 ч. 25 м.
Битрейт : 10,7 Мбит/сек
Ширина : 1920 пикселей
Высота : 1080 пикселей
Соотношение сторон : 16:9
Режим частоты кадров : Постоянный
Частота кадров : 23,976 кадра/сек
Цветовое пространство : YUV
Субдискретизация насыщенности : 4:2:0
Битовая глубина : 8 бит
Тип развёртки : Прогрессивная
Бит/(Пиксели*Кадры) : 0.216
Размер потока : 6,40 Гбайт (94%)
Заголовок : BDrip (by m@rik05)
Библиотека кодирования : x264 core 116 r2074 2641b9e
Настройки программы : cabac=1 / ref=4 / deblock=1:-3:-3 / analyse=0x3:0x133 / me=umh / subme=9 / psy=1 / psy_rd=1.00:0.05 / mixed_ref=1 / me_range=16 / chroma_me=1 / trellis=2 / 8x8dct=1 / cqm=0 / deadzone=21,11 / fast_pskip=1 / chroma_qp_offset=-3 / threads=12 / sliced_threads=0 / nr=0 / decimate=1 / interlaced=0 / bluray_compat=0 / constrained_intra=0 / bframes=6 / b_pyramid=2 / b_adapt=2 / b_bias=0 / direct=3 / weightb=1 / open_gop=0 / weightp=2 / keyint=250 / keyint_min=23 / scenecut=40 / intra_refresh=0 / rc_lookahead=60 / rc=crf / mbtree=1 / crf=17.0 / qcomp=0.70 / qpmin=10 / qpmax=51 / qpstep=4 / vbv_maxrate=40000 / vbv_bufsize=30000 / crf_max=0.0 / nal_hrd=none / frame-packing=4 / ip_ratio=1.40 / aq=1:0.70
Язык : English
Default : Да
Forced : Нет
Аудио
Идентификатор : 2
Формат : AC-3
Формат/Информация : Audio Coding 3
Расширение режима : CM (complete main)
Параметр Endianness формата : Big
Идентификатор кодека : A_AC3
Продолжительность : 1 ч. 25 м.
Вид битрейта : Постоянный
Битрейт : 448 Кбит/сек
Каналы : 6 каналов
Расположение каналов : Front: L C R, Side: L R, LFE
Частота : 48,0 КГц
Битовая глубина : 16 бит
Метод сжатия : С потерями
Размер потока : 274 Мбайт (4%)
Заголовок : AC3 / 5.1 ch / 448 kbps / дубляж (BD 3D)
Язык : Russian
Default : Да
Forced : Нет
Меню
00:00:00.000 : en:00:00:00.000
00:07:13.850 : en:00:07:13.850
00:15:34.600 : en:00:15:34.600
00:23:00.921 : en:00:23:00.921
00:32:05.215 : en:00:32:05.215
00:39:12.642 : en:00:39:12.642
00:47:37.313 : en:00:47:37.313
00:55:44.132 : en:00:55:44.132
01:02:44.010 : en:01:02:44.010
01:11:29.702 : en:01:11:29.702
01:20:03.424 : en:01:20:03.424
01:21:55.369 : en:01:21:55.369

Скриншоты


9.07.2012 - Релиз обновлён - исправлена ошибка использован код --frame-packing 3.Скачайте заново торрент-файл.
Остальные раздачи этого фильма (3)
Благодарности релизеру (12)

Торрент:

Статус:

Размер:

Зарегистрирован   [ 2013-01-10 12:51 ]

© закрыто правообладателем

6.81 GB

 
 Мнение о фильме (1)





спасибо большое за фильм! фильм красочный и хорошее 3D.. наконец-то посмотрели с женой, видели его рекламку в ролике от LG (в 3D) прям ждали :)