Торренты   
 
 

 

Монстры на каникулах / Hotel Transylvania [2012, BDrip, half1080p, Anamorph SideBySide]

Рейтинг 3D:
113 голосов
7.4
Рейтинг фильма:
116 голосов
8.1
 
Вы должны быть авторизированы,
чтобы ставить оценки


Монстры на каникулах / Hotel Transylvania
Год выпуска: 2012
Страна: США
Жанр: мультфильм, комедия, семейный
Продолжительность: 01:31:31
Перевод: Профессиональный (полное дублирование)
Режиссер: Генндий Тартаковский
Роли озвучивали:
Адам Сэндлер, Энди Сэмберг, Селена Гомес, Кевин Джеймс, Фрэн Дрешер, Стив Бушеми, Молли Шеннон, Дэвид Спейд, Си-Ло, Джон Ловиц
Роли дублировали:
Сергей Бурунов, Александр Пушной, Полина Гагарина, Михаил Шац, Дмитрий Полонский, Татьяна Лазарева, Алексей Колган, Никита Прозоровский, Владимр Антоник, Диомид Виноградов, Даниил Эльдаров, Сергей Чихачев
Описание: Граф Дракула для себя и своей любимой дочки построил хорошо укрытый от посторонних глаз отель, куда монстры со всего света приезжают отдохнуть от семейных забот, повседневной суеты и, конечно… людей. Но вездесущие американские туристы проникают и сюда.
Качество: BDrip by Alexman©
Формат 3D: Anamorph SideBySide / Горизонтальная анаморфная стереопара
Порядок ракурсов: левый ракурс первый
Видео: AVC, High@L4.1, 1920x1080, 23.976 fps, 8 385 Kbps
Аудио:
№1 - Русский дублированный перевод / AC3 / 48 KHz / 5.1 ch / 640 Kbps
№2 - Украинский дублированный перевод / AC3 / 48 KHz / 5.1 ch / 640 Kbps
№2 - Английский оригинальный / AC3 / 48 KHz / 5.1 ch / 640 Kbps

MediaInfo

General
Unique ID : 240066263818374581444564787739546615306 (0xB49B14A30547D4B08F82F21FC5BBFE0A)
Complete name : Hotel Transylvania [Монстры на каникулах] (2012) RUS hSbS 1080p by Alexman©.mkv
Format : Matroska
Format version : Version 4 / Version 2
File size : 6.72 GiB
Duration : 1h 31mn
Overall bit rate : 10.5 Mbps
Movie name : Hotel Transylvania [Монстры на каникулах] (2012) RUS hSbS 1080p by Alexman©
Encoded date : UTC 2013-01-26 11:51:54
Writing application : mkvmerge v6.0.0 ('Coming Up For Air') built on Jan 20 2013 09:52:00
Writing library : libebml v1.3.0 + libmatroska v1.4.0
Video
ID : 1
Format : AVC
Format/Info : Advanced Video Codec
Format profile : High@L4.1
Format settings, CABAC : Yes
Format settings, ReFrames : 4 frames
Codec ID : V_MPEG4/ISO/AVC
Duration : 1h 31mn
Bit rate : 8 385 Kbps
Width : 1 920 pixels
Height : 1 080 pixels
Display aspect ratio : 16:9
Frame rate mode : Constant
Frame rate : 23.976 fps
Color space : YUV
Chroma subsampling : 4:2:0
Bit depth : 8 bits
Scan type : Progressive
Bits/(Pixel*Frame) : 0.169
Stream size : 5.36 GiB (80%)
Writing library : x264 core 128 r2216 198a7ea
Encoding settings : cabac=1 / ref=4 / deblock=1:-3:-3 / analyse=0x3:0x113 / me=umh / subme=9 / psy=1 / psy_rd=1.00:0.15 / mixed_ref=1 / me_range=32 / chroma_me=1 / trellis=2 / 8x8dct=1 / cqm=0 / deadzone=21,11 / fast_pskip=1 / chroma_qp_offset=-3 / threads=4 / lookahead_threads=1 / sliced_threads=0 / nr=0 / decimate=1 / interlaced=0 / bluray_compat=0 / constrained_intra=0 / bframes=4 / b_pyramid=2 / b_adapt=2 / b_bias=0 / direct=3 / weightb=1 / open_gop=0 / weightp=2 / keyint=250 / keyint_min=23 / scenecut=40 / intra_refresh=0 / rc_lookahead=60 / rc=crf / mbtree=1 / crf=16.0 / qcomp=0.60 / qpmin=0 / qpmax=69 / qpstep=4 / vbv_maxrate=40000 / vbv_bufsize=40000 / crf_max=0.0 / nal_hrd=none / ip_ratio=1.40 / aq=1:0.70
Language : English
Default : Yes
Forced : No
Audio #1
ID : 2
Format : AC-3
Format/Info : Audio Coding 3
Mode extension : CM (complete main)
Format settings, Endianness : Big
Codec ID : A_AC3
Duration : 1h 31mn
Bit rate mode : Constant
Bit rate : 640 Kbps
Channel(s) : 6 channels
Channel positions : Front: L C R, Side: L R, LFE
Sampling rate : 48.0 KHz
Bit depth : 16 bits
Compression mode : Lossy
Stream size : 419 MiB (6%)
Title : Русский дублированный перевод
Language : Russian
Default : Yes
Forced : Yes
Audio #2
ID : 3
Format : AC-3
Format/Info : Audio Coding 3
Mode extension : CM (complete main)
Format settings, Endianness : Big
Codec ID : A_AC3
Duration : 1h 31mn
Bit rate mode : Constant
Bit rate : 640 Kbps
Channel(s) : 6 channels
Channel positions : Front: L C R, Side: L R, LFE
Sampling rate : 48.0 KHz
Bit depth : 16 bits
Compression mode : Lossy
Stream size : 419 MiB (6%)
Title : Украинский дублированный перевод
Language : Ukrainian
Default : No
Forced : No
Audio #3
ID : 4
Format : AC-3
Format/Info : Audio Coding 3
Mode extension : CM (complete main)
Format settings, Endianness : Big
Codec ID : A_AC3
Duration : 1h 31mn
Bit rate mode : Constant
Bit rate : 640 Kbps
Channel(s) : 6 channels
Channel positions : Front: L C R, Side: L R, LFE
Sampling rate : 48.0 KHz
Bit depth : 16 bits
Compression mode : Lossy
Stream size : 419 MiB (6%)
Title : Английский оригинальный
Language : English
Default : No
Forced : No

Скриншоты




Анимированные скриншоты для оценки 3Д-эффекта








Проверено на ТВ Samsung 40C7000, Samsung 46D7000 и Philips 42PFL7606HМультфильм перезалит 26.01.2013 - дорожка русского дубляжа заменена на лицензионную, добавлен украинский дубляж, видеоряд заменён более качественным. Желающие могут перекачать торрент.
Остальные раздачи этого фильма (3)
Благодарности релизеру (50)

Торрент:

Статус:

Размер:

Зарегистрирован   [ 2013-01-26 21:32 ]

проверено

6.72 GB

 
 Мнение о фильме (24)

1, 2  След.






Отличный мультик!!! Большое спсибо!
 

Мультик скорее для детей, жутко наивный :)
 

Хороший мультик! Отлично дублирован!!! Спасибо!!!!!
 

Хороший мультик!Спасибо !
 

Мультик полное гавно, очередной ванильный сюжет)) Однотипные конвейерные сюжеты)) Я аж уснул, а как закончился то сразу проснулся как под воздействием тупого и примитивного заклятия))
 

ждём 24 января-тады дубляж будИт
 

ждём 24 января-тады дубляж будИт
вообще-то и сейчас дубляж :) Причем то же самый, что будет 24-го, только качество (битрейт и кол-во каналов) звуковой дороги не самое лучшее, однако вполне слушабельное :)
 

ЭТО ЛУТШИЙ МУЛЬТ!!! И 3D - ОЧЕНЬ ВЕСЕЛЫЙ!
 

Мультик понравился, а не позно они про эмо мультик сняли?:)
 

Мульт отличный. Конечно, для детей, конечно наивный, но хотя бы не тупой, как вингс или задолбавшие всех смурфики. Персонажи - класс. Дубляж отличный, некоторые моменты дополнительно привнесены. Я так понял, будет еще "официальный" дубляж?
 

Мульт отличный!!! Очень позитивный! Не только для детей. ) Всем смотреть, вам понравится!
 

Мультфильм понравился) Благодарю!
 

Мульт хороший, семейный и добрый.
 

Ребенок в восторге. Спасибо
 

Классный мульт, очень понравился,пародя нга одеситский акцент, равшат и джумшут и многое другое
 

Порадовал хороший дубляж и динамика. 5 баллов! Рекомендую!
 

Хороший мульт, но если бы не мальчуган-сталкер-оторва (очень уж "из крайности в крайность" метается), то мульт был бы просто отличным! Поначалу думал стереть его после просмотра, но потом так захватило :) Перевод супер!
 

по отзывам сына 3сорт не брак
 

Мультик классный. Смешной, нам с семьей очень понравился
 

Прикольный мультик, взял в коллекцию
 
Евгений110852 Профиль 13-Сен-2013 08:34

Страница 1 из 2

1, 2  След.