Торренты   
 
 


Фантом / The Darkest Hour (Крис Горак) [2011 г., BDRip, Full OverUnder]

Рейтинг 3D:
21 голосов
6.2
Рейтинг фильма:
23 голосов
4.6
 
Вы должны быть авторизированы,
чтобы ставить оценки


Фантом / The Darkest Hour
Год выпуска: 2011
Страна: США, Россия
Жанр: фантастика, триллер
Продолжительность: 01:28:56
Перевод: Профессиональный (полное дублирование)
Режиссер: Крис Горак
В ролях: Эмиль Хирш, Оливия Тирлби, Макс Мингелла, Рэйчел Тейлор, Юэль Киннаман, Вероника Вернадская, Дато Бахтадзе, Гоша Куценко, Николай Ефремов, Артур Смольянинов, Петр Федоров
Описание: Фильм расскажет про четырех американских туристов, оказавшихся в Москве в момент нападения на нее инопланетян.
Релиз группы:
Формат 3D: OverUnder, BDRip, Full
Видео: AVC, High@L5.0, 1920x1600, 23.976 fps, 12,3 Мбит/сек
Аудио: Rus, DTS, 6 каналов, 755 Кбит/сек, 48,0 КГц
Аудио: Ukr, AC-3, 6 каналов, 448 Кбит/сек, 48,0 КГц
Аудио: Eng, DTS, 6 каналов, 1510 Кбит/сек, 48,0 КГц

Скриншоты




MediaInfo

Общее
Уникальный идентификатор : 174901805052591642884813696600234095473 (0x8394DCC42320FC65AF6850F88D757371)
Полное имя : E:\STEREO\The Darkest Hour_1080p_Rip by Dag13.mkv
Формат : Matroska
Версия формата : Version 2
Размер файла : 9,55 Гбайт
Продолжительность : 1 ч. 29 м.
Общий поток : 15,3 Мбит/сек
Дата кодирования : UTC 2013-01-14 10:04:17
Программа кодирования : mkvmerge v3.4.0 ('Rapunzel') сборка от May 15 2010 09:38:20
Библиотека кодирования : libebml v0.8.0 + libmatroska v0.9.0
Видео
Идентификатор : 1
Формат : AVC
Формат/Информация : Advanced Video Codec
Профиль формата : High@L5.0
Параметр CABAC формата : Да
Параметр ReFrames формата : 4 кадра
Идентификатор кодека : V_MPEG4/ISO/AVC
Продолжительность : 1 ч. 29 м.
Битрейт : 12,3 Мбит/сек
Ширина : 1920 пикселей
Высота : 1600 пикселей
Соотношение сторон : 1,200
Режим частоты кадров : Постоянный
Частота кадров : 23,976 кадра/сек
Цветовое пространство : YUV
Субдискретизация насыщенности : 4:2:0
Битовая глубина : 8 бит
Тип развёртки : Прогрессивная
Бит/(Пиксели*Кадры) : 0.167
Размер потока : 7,67 Гбайт (80%)
Заголовок : Rip by Dag13
Библиотека кодирования : x264 core 120 r2145 748fe16
Настройки программы : cabac=1 / ref=4 / deblock=1:-3:-3 / analyse=0x3:0x113 / me=umh / subme=9 / psy=1 / psy_rd=1.00:0.00 / mixed_ref=1 / me_range=16 / chroma_me=1 / trellis=1 / 8x8dct=1 / cqm=0 / deadzone=21,11 / fast_pskip=1 / chroma_qp_offset=-2 / threads=9 / sliced_threads=0 / nr=0 / decimate=1 / interlaced=0 / bluray_compat=0 / constrained_intra=0 / bframes=6 / b_pyramid=2 / b_adapt=2 / b_bias=0 / direct=3 / weightb=1 / open_gop=0 / weightp=2 / keyint=250 / keyint_min=23 / scenecut=40 / intra_refresh=0 / rc_lookahead=60 / rc=crf / mbtree=1 / crf=18.0 / qcomp=0.60 / qpmin=1 / qpmax=69 / qpstep=4 / ip_ratio=1.40 / aq=1:1.00
Язык : English
Default : Нет
Forced : Нет
Аудио #1
Идентификатор : 2
Формат : DTS
Формат/Информация : Digital Theater Systems
Идентификатор кодека : A_DTS
Продолжительность : 1 ч. 29 м.
Вид битрейта : Постоянный
Битрейт : 755 Кбит/сек
Каналы : 6 каналов
Расположение каналов : Front: L C R, Side: L R, LFE
Частота : 48,0 КГц
Битовая глубина : 24 бит
Метод сжатия : С потерями
Размер потока : 482 Мбайт (5%)
Язык : Russian
Default : Да
Forced : Нет
Аудио #2
Идентификатор : 3
Формат : AC-3
Формат/Информация : Audio Coding 3
Расширение режима : CM (complete main)
Параметр Endianness формата : Big
Идентификатор кодека : A_AC3
Продолжительность : 1 ч. 29 м.
Вид битрейта : Постоянный
Битрейт : 448 Кбит/сек
Каналы : 6 каналов
Расположение каналов : Front: L C R, Side: L R, LFE
Частота : 48,0 КГц
Битовая глубина : 16 бит
Метод сжатия : С потерями
Размер потока : 286 Мбайт (3%)
Язык : Ukrainian
Default : Нет
Forced : Нет
Аудио #3
Идентификатор : 4
Формат : DTS
Формат/Информация : Digital Theater Systems
Идентификатор кодека : A_DTS
Продолжительность : 1 ч. 29 м.
Вид битрейта : Постоянный
Битрейт : 1510 Кбит/сек
Каналы : 6 каналов
Расположение каналов : Front: L C R, Side: L R, LFE
Частота : 48,0 КГц
Битовая глубина : 24 бит
Метод сжатия : С потерями
Размер потока : 964 Мбайт (10%)
Язык : English
Default : Нет
Forced : Нет
На встроенных ТВ-плейерах показывать НЕ будет!!!
Остальные раздачи этого фильма (3)
Благодарности релизеру (6)

Торрент:

Статус:

Размер:

Зарегистрирован   [ 2013-01-14 18:46 ]

проверено

9.55 GB

 
 Мнение о фильме (8)





ну вот и до Москвы добрались!Мало на себя накликали. Посмотрим чо пророчат.Спасибо!
 

Фигня!!! Смотреть не стоит, только время потратите.
 

Согласен, фильм ни о чем.
 

Также возникла сложность с освоением 3D-формата, ибо Крис Горак ранее в своих фильмах его не использовал. Но, как говорится, все бывает в первый раз. Правда, к сожалению, большинство сцен фильма будет переконвертировано, потому что бюджета в 25 млн $ на качественную 3D-съемку явно бы не хватило. Оправданы ли будут прогнозы продюсеров, решивших, что зрителя привлечет больше переконвертация, чем качественный 2D-формат, покажет время ((((((((( не хочу конверт
 

ето единственный фильм от которого у меня болели глеза я вопше непонимаю такое 3d вот аватар ето тема....автору всьо равно спасибо за труды
 

Фигня!!! Смотреть не стоит, только время потратите.
Не совсем согласен. Вобщей куче 3Д фигни, эта фигня не такая уж фиговая :-)
бюджета в 25 млн $ на качественную 3D-съемку явно бы не хватило.
К сожалению, это правда - Москва для съемок не самая дешевая площадка.
Согласен, фильм ни о чем.
Как ни о чем!? А Куценко на лошади?
 

Красиво.Сюжет очень слабый.
 

Пойдет посмотреть