Торренты   
 
 


Пушистые против Зубастых в 3Д / The Outback 3D (Кюнг Хо Ли / Kyung Ho Lee) [2012, Мультфильм, Приключения, Семейный, BDrip, 1080p]Full OverUnder / Вертикальная стереопара

Рейтинг 3D:
17 голосов
6.1
Рейтинг фильма:
15 голосов
5.7
 
Вы должны быть авторизированы,
чтобы ставить оценки


Пушистые против Зубастых / The Outback
Год выпуска: 2012
Страна: Южная Корея, США
Студия: Lotte Entertainment, Digiart Production, Animation Picture Company
Жанр: Мультфильм, Приключения, Семейный
Продолжительность: 01:25:32
Перевод: Профессиональный (дублированный)
Русские субтитры: нет
Режиссер на русском: Кюнг Хо Ли
Режиссер на английском: Kyung Ho Lee
В ролях: Чарли Бьюли, Алан Камминг, Тим Карри, Крис Эджерли, Эрик Лопез, Норм МакДональд, Брэт МакКензи, Нолан Норт, Филип Проктор, Дженни Пулос, Нил Росс, Роб Шнайдер, Ивонн Страховски
Роли озвучивали: Владимир Рыбальченко, Александр Воронов, Татьяна Шарко, Александр Дасевич
Описание: Нелегко живется на свете если ты белый, а все остальные — серые. Так и белый коала Джонни страдает от своей особенности. А если ты особенный — то тебе, ясное дело, прямая дорога в цирк! Но любовь публики недолговечна, особенно, если кроме цвета шерсти, тебе нечем похвастаться. Джонни мечтает стать крутым суперегероем и ему представится такой шанс! Для этого всего лишь нужно разогнать стаю кровожадных псов, опрокинуть горы, перебраться через пропасть, перехитрить гигантских змей, приручить тасманского дьявола и победить гигантского крокодила! И что же в награду? Ну, конечно, любовь прекрасной дамы!
Сэмпл : http://www.sendspace.com/file/3w3k6h
Качество: BDrip
Контейнер: MKV
Формат 3D: OverUnder / Вертикальная стереопара
Порядок ракурсов: левый ракурс первый
Видео кодек: x264
Аудио кодек: AC3
Видео: Видео: AVC / 23,976 fps / 1920х2088 / 15.2 Mbps
Аудио: Русский / AC3 / 48 KHz / 5.1 ch / 448 Kbps
ВНИМАНИЕ ! На встроенных ТВ-плейерах работать не будет!!!
Железные плееры на которых воспроизводятся полные стереопары:Popcorn C-200 , Dune HD Smart D1 , Dune HD DUO , Dune HD Smart H1 , Dune HD Smart B1 , Dune HD Max.

MediaInfo

General
Unique ID : 192101733959269459973134777745023446326 (0x908572BBEE1F452EB1BAF6C504B42D36)
Complete name : E:\видео\The Outback.mkv
Format : Matroska
Format version : Version 2
File size : 9.54 GiB
Duration : 1h 25mn
Overall bit rate : 16.0 Mbps
Encoded date : UTC 2013-01-15 15:21:45
Writing application : mkvmerge v3.4.0 ('Rapunzel') сборка от May 15 2010 09:38:20
Writing library : libebml v0.8.0 + libmatroska v0.9.0
Video
ID : 1
Format : AVC
Format/Info : Advanced Video Codec
Format profile : High@L5.0
Format settings, CABAC : Yes
Format settings, ReFrames : 4 frames
Codec ID : V_MPEG4/ISO/AVC
Duration : 1h 25mn
Bit rate : 15.2 Mbps
Width : 1 920 pixels
Height : 2 088 pixels
Display aspect ratio : 0.920
Frame rate mode : Constant
Frame rate : 23.976 fps
Color space : YUV
Chroma subsampling : 4:2:0
Bit depth : 8 bits
Scan type : Progressive
Bits/(Pixel*Frame) : 0.158
Stream size : 9.08 GiB (95%)
Title : Rip by SeRoGa00
Writing library : x264 core 128 r2216kMod 198a7ea
Encoding settings : cabac=1 / ref=4 / deblock=1:-3:-3 / analyse=0x3:0x113 / me=umh / subme=9 / psy=1 / fade_compensate=0.00 / psy_rd=1.00:0.15 / mixed_ref=1 / me_range=16 / chroma_me=1 / trellis=2 / 8x8dct=1 / cqm=0 / deadzone=21,11 / fast_pskip=1 / chroma_qp_offset=-3 / threads=6 / lookahead_threads=1 / sliced_threads=0 / nr=0 / decimate=1 / interlaced=0 / bluray_compat=0 / constrained_intra=0 / bframes=6 / b_pyramid=2 / b_adapt=2 / b_bias=0 / direct=3 / weightb=1 / open_gop=0 / weightp=2 / keyint=250 / keyint_min=23 / scenecut=40 / intra_refresh=0 / rc_lookahead=60 / rc=crf / mbtree=1 / crf=18.0000 / qcomp=0.60 / qpmin=10 / qpmax=69 / qpstep=4 / vbv_maxrate=40000 / vbv_bufsize=40000 / crf_max=0.0 / nal_hrd=none / ip_ratio=1.40 / aq=1:1.00
Language : English
Default : Yes
Forced : No
Audio
ID : 2
Format : AC-3
Format/Info : Audio Coding 3
Mode extension : CM (complete main)
Format settings, Endianness : Big
Codec ID : A_AC3
Duration : 1h 25mn
Bit rate mode : Constant
Bit rate : 448 Kbps
Channel(s) : 6 channels
Channel positions : Front: L C R, Side: L R, LFE
Sampling rate : 48.0 KHz
Bit depth : 16 bits
Compression mode : Lossy
Stream size : 274 MiB (3%)
Language : Russian
Default : Yes
Forced : No

Скриншоты


Остальные раздачи этого фильма (3)
Благодарности релизеру (14)

Торрент:

Статус:

Размер:

Зарегистрирован   [ 2013-01-15 20:12 ]

проверено

9.54 GB

 
 Мнение о фильме (1)





спасибо большое за фильм! фильм красочный и хорошее 3D.. наконец-то посмотрели с женой, видели его рекламку в ролике от LG (в 3D) прям ждали :)