Торренты   
 
 

 

Нико 2 / Niko 2 - Little Brother, Big Trouble (Кари Юуусонен, Юрген Лердам) [2012 г., Anamorph OverUnder]

Рейтинг 3D:
7 голосов
7.7
Рейтинг фильма:
6 голосов
8.3
 
Вы должны быть авторизированы,
чтобы ставить оценки


Нико 2 3Д /Niko 2: Lentäjäveljekset 3D/Niko 2 - Little Brother, Big Trouble 3D «Маленький братишка - большие хлопоты»
Год выпуска: 2012
Страна: Финляндия, Германия, Дания, Ирландия
Жанр: мультфильм, комедия, приключения, семейный
Продолжительность: 01:16:05
Перевод: Профессиональный (полное дублирование)
Русские субтитры:есть
Режиссер: Кари Юуусонен, Юрген Лердам / Kari Juusonen,Jørgen Lerdam-Роли озвучивали:- Эрик Карлсон,Кари Хиеталахти,Юха Вейонен,Кари Кетонен,Юкка Расила,
Яакко Саарилуома,Элина Книхтиля,Рику Ниеминен,Пертти Койвула,Ристо Каскилахти.
-Описание: Новые приключения веселого и отважного олененка Нико, мечтающего, как и его легендарный отец, стать летающим оленем в упряжке Санта-Клауса. Все начинается накануне Рождества. Вместе со своими друзьями, белкой Джулиусом, лаской Вилмой и сводным братишкой Джонни Нико с нетерпением ждет Санту. Но тот снова попадает в невероятную историю. Неужели дети останутся без подарков? -Премьера: 29 сентября 2012 (13 декабря 2012)
Бюджет: €7 350 000
Кассовые сборы: $17 911 680
Релиз на DVD и Blu-Ray:29 января 2013, «Парадиз Медиа»,

. .
Проверено на встроенном плейере ТВ LG LW 650S
- Доп. информация по релизу: За источник спасибо сервису и avproh -Качество: BDrip
Контейнер: MKV
Формат 3D: Anamorph OverUnder / Вертикальная анаморфная стереопара
Порядок ракурсов: левый ракурс первый
Видео кодек: x264
Аудио кодек: AC3-Видео: AVC / 23,976 fps / 1920х1080p / 8612 Kbps
Аудио 1: - Русский / AC3 / 48 KHz / 5.1 ch / 640 Kbps (Дубляж )
Аудио 2: - Английский / AC3 / 48 KHz / 5.1 ch / 640 Kbps
Субтитры вшитые softsub (SRT):
#1 - Русские полные(включены по умолчанию)

MediaInfo

Общее
Уникальный идентификатор : 218233739814166102928527411968353815554 (0xA42E4A18A213FB22AF40052A6444CC02)
Полное имя : E:\3Д мультики\Niko 2 - Little Brother, Big Trouble (3D )2012.BDRip.1080p.Half OU.x264.AC3 Rus.3D-RuGroup.(m@rik05).mkv
Формат : Matroska
Версия формата : Version 4 / Version 2
Размер файла : 5,36 Гбайт
Продолжительность : 1 ч. 16 м.
Общий поток : 10,1 Мбит/сек
Название фильма : Niko 2 - Little Brother, Big Trouble 3D (2012) 3D-RuGroup (m@rik05)
Дата кодирования : UTC 2010-02-22 21:41:31
Программа кодирования : mkvmerge v5.9.0 ('On The Loose') built on Dec 9 2012 15:37:01
Библиотека кодирования : libebml v1.3.0 + libmatroska v1.4.0
Видео
Идентификатор : 1
Формат : AVC
Формат/Информация : Advanced Video Codec
Профиль формата : High@L4.1
Параметр CABAC формата : Да
Параметр ReFrames формата : 4 кадра
Идентификатор кодека : V_MPEG4/ISO/AVC
Продолжительность : 1 ч. 16 м.
Битрейт : 8612 Кбит/сек
Ширина : 1920 пикселей
Высота : 1080 пикселей
Соотношение сторон : 16:9
Режим частоты кадров : Постоянный
Частота кадров : 23,976 кадра/сек
Цветовое пространство : YUV
Субдискретизация насыщенности : 4:2:0
Битовая глубина : 8 бит
Тип развёртки : Прогрессивная
Бит/(Пиксели*Кадры) : 0.173
Размер потока : 4,58 Гбайт (85%)
Заголовок : BDrip by m@rik05
Библиотека кодирования : x264 core 116 r2074 2641b9e
Настройки программы : cabac=1 / ref=4 / deblock=1:-3:-3 / analyse=0x3:0x133 / me=umh / subme=9 / psy=1 / psy_rd=1.00:0.05 / mixed_ref=1 / me_range=16 / chroma_me=1 / trellis=2 / 8x8dct=1 / cqm=0 / deadzone=21,11 / fast_pskip=1 / chroma_qp_offset=-3 / threads=12 / sliced_threads=0 / nr=0 / decimate=1 / interlaced=0 / bluray_compat=0 / constrained_intra=0 / bframes=6 / b_pyramid=2 / b_adapt=2 / b_bias=0 / direct=3 / weightb=1 / open_gop=0 / weightp=2 / keyint=250 / keyint_min=23 / scenecut=40 / intra_refresh=0 / rc_lookahead=60 / rc=crf / mbtree=1 / crf=16.0 / qcomp=0.70 / qpmin=10 / qpmax=51 / qpstep=4 / vbv_maxrate=40000 / vbv_bufsize=30000 / crf_max=0.0 / nal_hrd=none / frame-packing=4 / ip_ratio=1.40 / aq=1:0.70
Default : Да
Forced : Нет
Аудио #1
Идентификатор : 2
Формат : AC-3
Формат/Информация : Audio Coding 3
Расширение режима : CM (complete main)
Параметр Endianness формата : Big
Идентификатор кодека : A_AC3
Продолжительность : 1 ч. 16 м.
Вид битрейта : Постоянный
Битрейт : 640 Кбит/сек
Каналы : 6 каналов
Расположение каналов : Front: L C R, Side: L R, LFE
Частота : 48,0 КГц
Битовая глубина : 16 бит
Метод сжатия : С потерями
Размер потока : 348 Мбайт (6%)
Заголовок : AC3 / 5/1 ch / 640 kbps / Дубляж
Язык : Russian
Default : Да
Forced : Нет
Аудио #2
Идентификатор : 3
Формат : AC-3
Формат/Информация : Audio Coding 3
Расширение режима : CM (complete main)
Параметр Endianness формата : Big
Идентификатор кодека : A_AC3
Продолжительность : 1 ч. 16 м.
Вид битрейта : Постоянный
Битрейт : 640 Кбит/сек
Каналы : 6 каналов
Расположение каналов : Front: L C R, Side: L R, LFE
Частота : 48,0 КГц
Битовая глубина : 16 бит
Метод сжатия : С потерями
Размер потока : 348 Мбайт (6%)
Заголовок : AC3 / 5/1 ch / 640 kbps
Язык : English
Default : Нет
Forced : Нет
Текст
Идентификатор : 4
Формат : UTF-8
Идентификатор кодека : S_TEXT/UTF8
Идентификатор кодека/Информация : UTF-8 Plain Text
Заголовок : полные
Язык : Russian
Default : Да
Forced : Нет
Меню
00:00:00.000 : en:00:00:00.000
00:05:57.315 : en:00:05:57.315
00:16:19.270 : en:00:16:19.270
00:23:55.142 : en:00:23:55.142
00:31:49.866 : en:00:31:49.866
00:40:38.311 : en:00:40:38.311
00:47:13.748 : en:00:47:13.748
00:54:04.366 : en:00:54:04.366
00:58:33.135 : en:00:58:33.135
01:05:04.150 : en:01:05:04.150
01:08:02.161 : en:01:08:02.161
01:10:53.374 : en:01:10:53.374

Log x264

:

Скриншоты


Благодарности релизеру (35)

Торрент:

Статус:

Размер:

Зарегистрирован   [ 2013-01-20 02:31 ]

проверено

5.36 GB