Торренты   
 
 


Судья Дредд 3D / Dredd 3D [2012, BDrip, half1080p, Anamorph SideBySide]

Рейтинг 3D:
135 голосов
6.5
Рейтинг фильма:
138 голосов
6.6
 
Вы должны быть авторизированы,
чтобы ставить оценки


© закрыто правообладателем
Год выпуска: 2012
Страна: ЮАР, Великобритания
Жанр: фантастика, боевик, триллер, криминал
Продолжительность: 01:35:52
Перевод: Профессиональный (полное дублирование) - лицензия (R5)
Режиссер: Пит Трэвис
В ролях:
Карл Урбан, Оливия Тирлби, Лина Хиди, Вуд Харрис, Рэйчел Вуд, Андил Мнгади, Портес Ксандо Стинкамп, Джейсон Коуп, Эмма Бреши, Рэки Айола
Описание: Будущее не столь красочно и великолепно, каким его представляют современные люди. Через несколько столетий человечество окажется на грани самоуничтожения, захлёбываясь в кровавых преступлениях, смертельных грехах и беспорядочных убийствах. Старую систему правосудия будет невозможно использовать — анархия, всеобщие беспорядки вынуждают ещё сохранившуюся власть, тем не менее, потерявшую всякий авторитет и легитимность, пойти на отчаянные крайние меры и ввести институт Судей — универсальных полицейских, правоприменителей, а по совместительству — и прокуроров, которые упростили бы весь процесс задержания, следствия и судебных тяжб, совмещая в одном лице все должности блюстителей и защитников правопорядка.
Негодяи, подонки, вконец обнаглевшие и распоясавшиеся преступники и бандитские группировки всё равно не желают сдавать свои упрочившие позиции, опасаясь лишь одного — встречи с легендарным Судьёй Дреддом, пересажавшим или расстрелявшим не одну сотню насильников, террористов и жадных до человеческих страданий маньяков. В то время, как беспорядки и бесчинства бушуют на улицах города, Дредд спешит вернуть порядок, Закон и тишину, которым, кажется, уже никогда не обрести свою былую полноту, мощь и силу…
Качество: BDrip by Alexman©
Формат 3D: Anamorph SideBySide / Горизонтальная анаморфная стереопара
Порядок ракурсов: левый ракурс первый
Видео: AVC, High@L4.1, 1920x1080, 23.976 fps, 14.3 Mbps
Аудио:
№1 - Русский дублированный перевод / AC3 / 48 KHz / 5.1 ch / 640 Kbps
№2 - Английский оригинальный / AC3 / 48 KHz / 5.1 ch / 640 Kbps
Субтитры:
№1 - Русские полные
№2 - Английские полные

MediaInfo

General
Unique ID : 170323300146003718611498533002488140227 (0x8023130BBC088B41B76E6B24F58951C3)
Complete name : Dredd [Судья Дредд] (2012) DUB 1080p by Alexman©.mkv
Format : Matroska
Format version : Version 4 / Version 2
File size : 10.6 GiB
Duration : 1h 35mn
Overall bit rate : 15.9 Mbps
Movie name : Dredd [Судья Дредд] (2012) DUB hSbS 1080p by Alexman©
Encoded date : UTC 2013-01-25 19:11:25
Writing application : mkvmerge v6.0.0 ('Coming Up For Air') built on Jan 20 2013 09:52:00
Writing library : libebml v1.3.0 + libmatroska v1.4.0
Video
ID : 1
Format : AVC
Format/Info : Advanced Video Codec
Format profile : High@L4.1
Format settings, CABAC : Yes
Format settings, ReFrames : 4 frames
Codec ID : V_MPEG4/ISO/AVC
Duration : 1h 35mn
Bit rate : 14.3 Mbps
Width : 1 920 pixels
Height : 1 080 pixels
Display aspect ratio : 16:9
Frame rate mode : Constant
Frame rate : 23.976 fps
Color space : YUV
Chroma subsampling : 4:2:0
Bit depth : 8 bits
Scan type : Progressive
Bits/(Pixel*Frame) : 0.287
Stream size : 9.55 GiB (90%)
Writing library : x264 core 128 r2216 198a7ea
Encoding settings : cabac=1 / ref=4 / deblock=1:-3:-3 / analyse=0x3:0x113 / me=umh / subme=9 / psy=1 / psy_rd=1.00:0.15 / mixed_ref=1 / me_range=32 / chroma_me=1 / trellis=2 / 8x8dct=1 / cqm=0 / deadzone=21,11 / fast_pskip=1 / chroma_qp_offset=-3 / threads=4 / lookahead_threads=1 / sliced_threads=0 / nr=0 / decimate=1 / interlaced=0 / bluray_compat=0 / constrained_intra=0 / bframes=4 / b_pyramid=2 / b_adapt=2 / b_bias=0 / direct=3 / weightb=1 / open_gop=0 / weightp=2 / keyint=250 / keyint_min=23 / scenecut=40 / intra_refresh=0 / rc_lookahead=60 / rc=crf / mbtree=1 / crf=17.0 / qcomp=0.60 / qpmin=0 / qpmax=69 / qpstep=4 / vbv_maxrate=40000 / vbv_bufsize=40000 / crf_max=0.0 / nal_hrd=none / ip_ratio=1.40 / aq=1:0.70
Language : English
Default : Yes
Forced : No
Audio #1
ID : 2
Format : AC-3
Format/Info : Audio Coding 3
Mode extension : CM (complete main)
Format settings, Endianness : Big
Codec ID : A_AC3
Duration : 1h 35mn
Bit rate mode : Constant
Bit rate : 640 Kbps
Channel(s) : 6 channels
Channel positions : Front: L C R, Side: L R, LFE
Sampling rate : 48.0 KHz
Bit depth : 16 bits
Compression mode : Lossy
Stream size : 439 MiB (4%)
Title : Русский дублированный DD 5.1 @ 640 kbps
Language : Russian
Default : Yes
Forced : Yes
Audio #2
ID : 3
Format : AC-3
Format/Info : Audio Coding 3
Mode extension : CM (complete main)
Format settings, Endianness : Big
Codec ID : A_AC3
Duration : 1h 35mn
Bit rate mode : Constant
Bit rate : 640 Kbps
Channel(s) : 6 channels
Channel positions : Front: L C R, Side: L R, LFE
Sampling rate : 48.0 KHz
Bit depth : 16 bits
Compression mode : Lossy
Stream size : 439 MiB (4%)
Title : Английский оригинальный
Language : English
Default : No
Forced : No
Text #1
ID : 4
Format : UTF-8
Codec ID : S_TEXT/UTF8
Codec ID/Info : UTF-8 Plain Text
Language : Russian
Default : No
Forced : No
Text #2
ID : 5
Format : UTF-8
Codec ID : S_TEXT/UTF8
Codec ID/Info : UTF-8 Plain Text
Language : English
Default : No
Forced : No

Скриншоты



Анимированные скриншоты для оценки 3Д-эффекта






Проверено на ТВ Samsung 40C7000 и Samsung 46D7000Фильм перезалит 25.01.2013 - дорожка русского дубляжа заменена на лицензионную. Желающие могут перекачать торрент.
Остальные раздачи этого фильма (3)
Благодарности релизеру (42)

Торрент:

Статус:

Размер:

Зарегистрирован   [ 2013-01-25 23:26 ]

© закрыто правообладателем

10.62 GB

 
 Мнение о фильме (51)

Пред.  1, 2, 3  След.






Отличный фильм и достойное 3D !
 

Нормальный фильм! Взят отдельно снятый сюжет и раскручен! Просто вы зажрались походу, господа!!! Надо понимать, что вы ждёте от фильма, тем более от ремейка. Второго такого же Судью не снимут - это однозначно и дураку понятно! Касательно этого фильма - мне понравился. Смотрел сначала в кинотеатре, зачёт! Раздающему - респект!
 

спасибо.мне фильм понравился
 

Фильм смотрел ради 3D,поначалу вроде ничего,потом привык и не замечал.
 

Присоединяюсь ко всем кто сказал, что фильм шлак :) Автору пасиба.
 

3D здесь ерундовое. Явно снималось не двумя камерами, а делалось просто на компьюторе. Картина плоская до ужасов только в некоторых местах чувствуется 3D эффект.
 

Фильм понравился.Советую всем
 

Терпения хватило минут на 5. Снести?
 

Мне музыкальное сопровождение особенно понравилось. Советую посмотреть
 

Фильм полный треш, Тарантина отдыхает. Оставил неплохое ощущение, намного лучше чем после "Вспомнить все". Хорошо, что к это не ремейк а типа-приквел. Глубокого смысла нет, но это и не "Отверженные" Гюго. Фильм в коллекцию для фона...
 

Отличный фильм! Смотрел в кино, скачаю в коллекцию. Спасибо за релиз!
 

Согласен, фильм отличный! Зрелищный и интересный, в меру мясной. А вот 3D действительно разочаровало в этом фильме: ни глубины, ни вылетов...
 

Ничего хорошо, в прочем и плохого, сказать не могу мои оценки говорят сами за себя...
 

Фильм содержательный и смотрится с интересом. Оценки 6.1 и 6.1 мне кажутся заниженными. Фильм о возможных решениях (экстремальных, но действенных) знакомых нам проблем. 3D эффект создаёт ощущение реальности, но не отвлекает внимание от происходящих событий внезапными проявлениями.
 

что за шум? это просто КИНО! без всяких там заумничаний
 

Я любитель просмотра фильмов, в процессе которых мозг отдыхает. Но сей опус после фильма со Сталлоне семье даже показывать не стал. Сказал, что г... и снёс.
 

Лучше, чем ожидал. Хороший звук, качественно снят...
 

много крови
 

на мой взгляд фильм достаточно посредственный, зд не очень. весь фильм хотелось узнать как выглядит главный герой, но,увы...сюжета практически нет, слишком много крови, фильм берет исключительно спецэффектами.
 

Фильм отличный,крови мало,бывает и больше про Сталлоне фильм для детей ,этот для взрослых,Аналог фильм Рейд только тот по круче.3d с пивом покатит.Здесь снялся ржавого брат близнец который живет за границей.
 

Страница 2 из 3

Пред.  1, 2, 3  След.