Торренты   
 
 

 

Монстры на каникулах / Hotel Transylvania (Генндий Тартаковский) [2012 г., BDRip, Full OverUnder]

Рейтинг 3D:
113 голосов
7.4
Рейтинг фильма:
116 голосов
8.1
 
Вы должны быть авторизированы,
чтобы ставить оценки


Монстры на каникулах / Hotel Transylvania
Год выпуска: 2012
Страна: США
Жанр: мультфильм, комедия, семейный
Продолжительность: 01:31:31
Перевод: Профессиональный (полное дублирование) Чистый звук
Режиссер: Генндий Тартаковский
В ролях: Адам Сэндлер, Энди Сэмберг, Селена Гомес, Кевин Джеймс, Фрэн Дрешер, Стив Бушеми, Молли Шеннон, Дэвид Спейд, Си-Ло, Джон Ловиц и др.
Описание: Граф Дракула для себя и своей любимой дочки построил хорошо укрытый от посторонних глаз отель, куда монстры со всего света приезжают отдохнуть от семейных забот, повседневной суеты и, конечно… людей. Но вездесущие американские туристы проникают и сюда.
Релиз группы:
Формат 3D: OverUnder BDRip, Full
Видео: AVC, High@L4.0, 1920x2080, 23.976 fps, 14,6 Мбит/сек
Аудио: Rus, AC-3, 2 канала, 192 Кбит/сек, 48,0 КГц
Аудио: Eng, DTS, 6 каналов, 1510 Кбит/сек, 48,0 КГц

Скриншоты




MediaInfo

Общее
Уникальный идентификатор : 232748520021328285455051993764396251884 (0xAF19BC031604F502B8B667A44C3BBAEC)
Полное имя : E:\STEREO\HotelTransylvania_1080p_Rip by Dag13.mkv
Формат : Matroska
Версия формата : Version 2
Размер файла : 10,6 Гбайт
Продолжительность : 1 ч. 31 м.
Общий поток : 16,7 Мбит/сек
Название фильма : Hotel Transylvania (3D) 2012 (by Ash61)
Дата кодирования : UTC 2013-01-23 09:56:34
Программа кодирования : mkvmerge v3.4.0 ('Rapunzel') сборка от May 15 2010 09:38:20
Библиотека кодирования : libebml v0.8.0 + libmatroska v0.9.0
Видео
Идентификатор : 1
Формат : AVC
Формат/Информация : Advanced Video Codec
Профиль формата : High@L5.0
Параметр CABAC формата : Да
Параметр ReFrames формата : 4 кадра
Идентификатор кодека : V_MPEG4/ISO/AVC
Продолжительность : 1 ч. 31 м.
Битрейт : 14,6 Мбит/сек
Ширина : 1920 пикселей
Высота : 2080 пикселей
Соотношение сторон : 0,923
Режим частоты кадров : Постоянный
Частота кадров : 23,976 кадра/сек
Цветовое пространство : YUV
Субдискретизация насыщенности : 4:2:0
Битовая глубина : 8 бит
Тип развёртки : Прогрессивная
Бит/(Пиксели*Кадры) : 0.153
Размер потока : 9,35 Гбайт (88%)
Заголовок : Rip by Dag13
Библиотека кодирования : x264 core 120 r2145 748fe16
Настройки программы : cabac=1 / ref=4 / deblock=1:-3:-3 / analyse=0x3:0x113 / me=umh / subme=9 / psy=1 / psy_rd=1.00:0.00 / mixed_ref=1 / me_range=16 / chroma_me=1 / trellis=1 / 8x8dct=1 / cqm=0 / deadzone=21,11 / fast_pskip=1 / chroma_qp_offset=-2 / threads=9 / sliced_threads=0 / nr=0 / decimate=1 / interlaced=0 / bluray_compat=0 / constrained_intra=0 / bframes=6 / b_pyramid=2 / b_adapt=2 / b_bias=0 / direct=3 / weightb=1 / open_gop=0 / weightp=2 / keyint=250 / keyint_min=23 / scenecut=40 / intra_refresh=0 / rc_lookahead=60 / rc=crf / mbtree=1 / crf=17.0 / qcomp=0.60 / qpmin=1 / qpmax=69 / qpstep=4 / ip_ratio=1.40 / aq=1:1.00
Язык : English
Default : Нет
Forced : Нет
Аудио #1
Идентификатор : 2
Формат : AC-3
Формат/Информация : Audio Coding 3
Расширение режима : CM (complete main)
Параметр Endianness формата : Big
Идентификатор кодека : A_AC3
Продолжительность : 1 ч. 31 м.
Вид битрейта : Постоянный
Битрейт : 192 Кбит/сек
Каналы : 2 канала
Расположение каналов : Front: L R
Частота : 48,0 КГц
Битовая глубина : 16 бит
Метод сжатия : С потерями
Размер потока : 126 Мбайт (1%)
Язык : Russian
Default : Да
Forced : Нет
Аудио #2
Идентификатор : 3
Формат : DTS
Формат/Информация : Digital Theater Systems
Идентификатор кодека : A_DTS
Продолжительность : 1 ч. 31 м.
Вид битрейта : Постоянный
Битрейт : 1510 Кбит/сек
Каналы : 6 каналов
Расположение каналов : Front: L C R, Side: L R, LFE
Частота : 48,0 КГц
Битовая глубина : 16 бит
Метод сжатия : С потерями
Размер потока : 988 Мбайт (9%)
Язык : English
Default : Нет
Forced : Нет
На встроенных ТВ-плейерах показывать НЕ будет!!!
Остальные раздачи этого фильма (3)
Благодарности релизеру (4)

Торрент:

Статус:

Размер:

Зарегистрирован   [ 2013-01-23 18:32 ]

проверено

10.65 GB

 
 Мнение о фильме (24)

1, 2  След.






Отличный мультик!!! Большое спсибо!
 

Мультик скорее для детей, жутко наивный :)
 

Хороший мультик! Отлично дублирован!!! Спасибо!!!!!
 

Хороший мультик!Спасибо !
 

Мультик полное гавно, очередной ванильный сюжет)) Однотипные конвейерные сюжеты)) Я аж уснул, а как закончился то сразу проснулся как под воздействием тупого и примитивного заклятия))
 

ждём 24 января-тады дубляж будИт
 

ждём 24 января-тады дубляж будИт
вообще-то и сейчас дубляж :) Причем то же самый, что будет 24-го, только качество (битрейт и кол-во каналов) звуковой дороги не самое лучшее, однако вполне слушабельное :)
 

ЭТО ЛУТШИЙ МУЛЬТ!!! И 3D - ОЧЕНЬ ВЕСЕЛЫЙ!
 

Мультик понравился, а не позно они про эмо мультик сняли?:)
 

Мульт отличный. Конечно, для детей, конечно наивный, но хотя бы не тупой, как вингс или задолбавшие всех смурфики. Персонажи - класс. Дубляж отличный, некоторые моменты дополнительно привнесены. Я так понял, будет еще "официальный" дубляж?
 

Мульт отличный!!! Очень позитивный! Не только для детей. ) Всем смотреть, вам понравится!
 

Мультфильм понравился) Благодарю!
 

Мульт хороший, семейный и добрый.
 

Ребенок в восторге. Спасибо
 

Классный мульт, очень понравился,пародя нга одеситский акцент, равшат и джумшут и многое другое
 

Порадовал хороший дубляж и динамика. 5 баллов! Рекомендую!
 

Хороший мульт, но если бы не мальчуган-сталкер-оторва (очень уж "из крайности в крайность" метается), то мульт был бы просто отличным! Поначалу думал стереть его после просмотра, но потом так захватило :) Перевод супер!
 

по отзывам сына 3сорт не брак
 

Мультик классный. Смешной, нам с семьей очень понравился
 

Прикольный мультик, взял в коллекцию
 
Евгений110852 Профиль 13-Сен-2013 08:34

Страница 1 из 2

1, 2  След.