Торренты   
 
 

 

Амфибия / Amphibious (Брайан Юзна) [2010 г., BDRip, Full OverUnder]

Рейтинг 3D:
4 голосов
9.2
Рейтинг фильма:
5 голосов
8.6
 
Вы должны быть авторизированы,
чтобы ставить оценки


Амфибия / Amphibious
Год выпуска: 2010
Страна: Нидерланды, Индонезия / Fu Works, Komodo Dragon, Komodo Films
Жанр: Ужасы
Продолжительность: 01:26:28
Перевод: Профессиональный (полное дублирование)
Режиссер: Брайан Юзна
В ролях: Майкл Паре, Мохаммад Адитья, Бамбанг Б.С., Стивен Барай, Френсис Боске, Джинна Фассерт, Майкл С. Джехиан, Френсис Маджи, Тимо Оттеванrер
Описание: Морской биолог Скайлар Шейн нанимает лодку капитана Джека Боумана, чтобы найти образцы доисторических форм возле северного побережья Суматры. Во время экспедиции, они сталкиваются с бандой контрабандистов, скрывающихся на рыболовецкой платформе посреди моря. Но контрабандисты не самое страшное, с чем придется столкнуться Скайлар - приближается жуткий шторм, а в темных глубинах вод проснулось древнее и могучее существо...
Релиз группы:
Формат 3D: OverUnder BDRip, Full
Видео: AVC, High@L5.0, 1920x2080, 23.976 fps, 13,6 Мбит/сек
Аудио: Rus, AC-3, 2 канала, 448 Кбит/сек, 48,0 КГц
Аудио: Eng, DTS, 6 каналов, 1510 Кбит/сек, 48,0 КГц

Скриншоты




MediaInfo

Общее
Уникальный идентификатор : 177896216630449809675104914806795706648 (0x85D590A7C8A9951BB2CDFAD53408A118)
Полное имя : E:\STEREO\Amphibious_1080p_Rip by Dag13.mkv
Формат : Matroska
Версия формата : Version 2
Размер файла : 9,56 Гбайт
Продолжительность : 1 ч. 26 м.
Общий поток : 15,8 Мбит/сек
Дата кодирования : UTC 2013-01-24 10:22:05
Программа кодирования : mkvmerge v3.4.0 ('Rapunzel') сборка от May 15 2010 09:38:20
Библиотека кодирования : libebml v0.8.0 + libmatroska v0.9.0
Видео
Идентификатор : 1
Формат : AVC
Формат/Информация : Advanced Video Codec
Профиль формата : High@L5.0
Параметр CABAC формата : Да
Параметр ReFrames формата : 4 кадра
Идентификатор кодека : V_MPEG4/ISO/AVC
Битрейт : 13,6 Мбит/сек
Ширина : 1920 пикселей
Высота : 2080 пикселей
Соотношение сторон : 0,923
Режим частоты кадров : Переменный
Частота кадров в оригинале : 23,976 кадра/сек
Цветовое пространство : YUV
Субдискретизация насыщенности : 4:2:0
Битовая глубина : 8 бит
Тип развёртки : Прогрессивная
Заголовок : Rip by Dag13
Библиотека кодирования : x264 core 120 r2145 748fe16
Настройки программы : cabac=1 / ref=4 / deblock=1:-3:-3 / analyse=0x3:0x113 / me=umh / subme=9 / psy=1 / psy_rd=1.00:0.00 / mixed_ref=1 / me_range=16 / chroma_me=1 / trellis=1 / 8x8dct=1 / cqm=0 / deadzone=21,11 / fast_pskip=1 / chroma_qp_offset=-2 / threads=9 / sliced_threads=0 / nr=0 / decimate=1 / interlaced=0 / bluray_compat=0 / constrained_intra=0 / bframes=6 / b_pyramid=2 / b_adapt=2 / b_bias=0 / direct=3 / weightb=1 / open_gop=0 / weightp=2 / keyint=250 / keyint_min=23 / scenecut=40 / intra_refresh=0 / rc_lookahead=60 / rc=crf / mbtree=1 / crf=18.0 / qcomp=0.60 / qpmin=1 / qpmax=69 / qpstep=4 / ip_ratio=1.40 / aq=1:1.00
Язык : English
Default : Нет
Forced : Нет
Аудио #1
Идентификатор : 2
Формат : AC-3
Формат/Информация : Audio Coding 3
Профиль формата : Dolby Digital
Расширение режима : CM (complete main)
Параметр Endianness формата : Big
Идентификатор кодека : A_AC3
Продолжительность : 1 ч. 26 м.
Вид битрейта : Постоянный
Битрейт : 448 Кбит/сек
Каналы : 2 канала
Расположение каналов : Front: L R
Частота : 48,0 КГц
Битовая глубина : 16 бит
Метод сжатия : С потерями
Размер потока : 277 Мбайт (3%)
Язык : Russian
Default : Да
Forced : Нет
Аудио #2
Идентификатор : 3
Формат : DTS
Формат/Информация : Digital Theater Systems
Идентификатор кодека : A_DTS
Продолжительность : 1 ч. 26 м.
Вид битрейта : Постоянный
Битрейт : 1510 Кбит/сек
Каналы : 6 каналов
Расположение каналов : Front: L C R, Side: L R, LFE
Частота : 48,0 КГц
Битовая глубина : 16 бит
Метод сжатия : С потерями
Размер потока : 934 Мбайт (10%)
Язык : English
Default : Нет
Forced : Нет
На встроенных ТВ-плейерах показывать НЕ будет!!!
Благодарности релизеру (3)

Торрент:

Статус:

Размер:

Зарегистрирован   [ 2013-01-24 20:43 ]

проверено

9.56 GB