Торренты   
 
 


Джунгли [2012, BDrip, half1080p, Anamorph SideBySide]

Рейтинг 3D:
62 голосов
4.0
Рейтинг фильма:
71 голосов
5.0
 
Вы должны быть авторизированы,
чтобы ставить оценки


Джунгли
Год выпуска: 2012
Страна: Россия
Жанр: мелодрама, комедия, приключения
Продолжительность: 01:23:30
Озвучка: Оригинальная
Режиссер: Александр Войтинский
В ролях:
Сергей Светлаков, Вера Брежнева, Александр Макогон, Александр Половцев, Марина Дюжева, Михаил Ефремов, Ирина Медведева, Ампорн Панкраток,
Соонтри Кхумжулла, Сомсак Падуга
Описание: У Сергея и Марины в семейной жизни наступил кризис. Во время одной из ссор, они решают поехать в экзотическое путешествие. Всю дорогу между супругами не утихают ссоры, которые в конце концов приводят к тому, что они оказываются на необитаемом острове, затерянном в океане. Вместо того чтобы вместе бороться за выживание, наши герои продолжают выяснять отношения, постепенно переходя к настоящим боевым действиям. В довершение несчастий оказывается, что остров населен племенем воинствующих туземцев.
Качество: BDrip by Alexman©
Формат 3D: Anamorph SideBySide / Горизонтальная анаморфная стереопара
Порядок ракурсов: левый ракурс первый
Видео: AVC, High@L4.1, 1920x1080, 23.976 fps, 15.0 Mbps
Аудио: Русский оригинальный / AC3 / 48 KHz / 5.1 ch / 640 Kbps
Дополнительная информация: За качество 3D-эффектов претензии просьба высказывать создателям фильма :)

MediaInfo

General
Unique ID : 241201766496862262977871032164515607015 (0xB575C53DC102DFF781473D424C4871E7)
Complete name : Джунгли (2012) hSbS 1080p by Alexman©.mkv
Format : Matroska
Format version : Version 4 / Version 2
File size : 9.31 GiB
Duration : 1h 23mn
Overall bit rate : 16.0 Mbps
Movie name : Джунгли (2012) hSbS 1080p by Alexman©
Encoded date : UTC 2013-01-27 07:26:02
Writing application : mkvmerge v6.0.0 ('Coming Up For Air') built on Jan 20 2013 09:52:00
Writing library : libebml v1.3.0 + libmatroska v1.4.0
Video
ID : 1
Format : AVC
Format/Info : Advanced Video Codec
Format profile : High@L4.1
Format settings, CABAC : Yes
Format settings, ReFrames : 4 frames
Codec ID : V_MPEG4/ISO/AVC
Duration : 1h 23mn
Bit rate : 15.0 Mbps
Width : 1 920 pixels
Height : 1 080 pixels
Display aspect ratio : 16:9
Frame rate mode : Constant
Frame rate : 23.976 fps
Color space : YUV
Chroma subsampling : 4:2:0
Bit depth : 8 bits
Scan type : Progressive
Bits/(Pixel*Frame) : 0.302
Stream size : 8.75 GiB (94%)
Writing library : x264 core 129 r2245 bc13772
Encoding settings : cabac=1 / ref=4 / deblock=1:-3:-3 / analyse=0x3:0x113 / me=umh / subme=9 / psy=1 / psy_rd=1.00:0.15 / mixed_ref=1 / me_range=32 / chroma_me=1 / trellis=2 / 8x8dct=1 / cqm=0 / deadzone=21,11 / fast_pskip=1 / chroma_qp_offset=-3 / threads=4 / lookahead_threads=1 / sliced_threads=0 / nr=0 / decimate=1 / interlaced=0 / bluray_compat=0 / constrained_intra=0 / bframes=4 / b_pyramid=2 / b_adapt=2 / b_bias=0 / direct=3 / weightb=1 / open_gop=0 / weightp=2 / keyint=250 / keyint_min=23 / scenecut=40 / intra_refresh=0 / rc_lookahead=60 / rc=crf / mbtree=1 / crf=17.0 / qcomp=0.60 / qpmin=0 / qpmax=69 / qpstep=4 / vbv_maxrate=40000 / vbv_bufsize=40000 / crf_max=0.0 / nal_hrd=none / ip_ratio=1.40 / aq=1:0.70
Language : Russian
Default : Yes
Forced : No
Audio
ID : 2
Format : AC-3
Format/Info : Audio Coding 3
Mode extension : CM (complete main)
Format settings, Endianness : Big
Codec ID : A_AC3
Duration : 1h 23mn
Bit rate mode : Constant
Bit rate : 640 Kbps
Channel(s) : 6 channels
Channel positions : Front: L C R, Side: L R, LFE
Sampling rate : 48.0 KHz
Bit depth : 16 bits
Compression mode : Lossy
Stream size : 382 MiB (4%)
Language : Russian
Default : Yes
Forced : Yes

Анимированные скриншоты для оценки 3Д-эффекта




Проверено на ТВ Samsung 40C7000 и Samsung 46D7000
Остальные раздачи этого фильма (4)
Благодарности релизеру (9)

Торрент:

Статус:

Размер:

Зарегистрирован   [ 2013-01-27 13:10 ]

проверено

9.31 GB

 
 Мнение о фильме (26)

1, 2  След.






Дополнительная информация: За качество 3D-эффектов претензии просьба высказывать создателям фильма :)
да уж, еще тот "шедевр" они сотворили :)
 

еще тот "шедевр" они сотворили :)
Не "Аватар" уж точно :)
 

За рип спасибо) Конверт конечно убогий.
Доставила рука в этом скрине xDD
 

Доставила рука в этом скрине xDD

А мне больше тётенькино лицо здесь понравилось

 

это конверт??они ж по моему только в 2д??
 

gumbatova1, Уже по скриншотам вижу довольно грубый конверт.
 

gumbatova1, Не только в 2d. Я лично на 3d в кинотеатр ходил.
 

во блин, а я и не знал что в 3д. Смотрел ТСку когда вышла. Эх.
 

Скажем, прогресс на лицо, это я про конвертацию. Уровень примерно Конана. Вспомните Темный мир, Бой с тенью, Белку со Стрелкой, вот где ужас был. Жаль, конечно, что российское стерео начал вытеснять конверт, но петицию в пленум нам уже не подать. Радует что качество потихоньку растет. Как минимум четыре слоя глубины в некоторых сценах.
 

Фуфло конверт((((((
 

Жаль, конечно, что российское стерео начал вытеснять конверт.
Вроде бы говорили, что единственную нашу стереовидеокамеру сломали во время съемок порутчика ржевского?
 

Вроде бы говорили, что единственную нашу стереовидеокамеру сломали во время съемок порутчика ржевского?
могли и еще одну купить, бюджеты то позволяют :) тут мне кажется дело не в этом ;)
 

Dag13, ИМХО уровень Конана - это уровень неприемлимый. При его просмотре, выдавленные плоские слои утомили меня очень быстро и я досматривал фильм в 2D.
 

А не пробывали менять местами кадры левый с правым в плеере у кого выдавленная картинка? Хорошее 3д ...и глубина нормальная
 

Даа... Качество самой картинки убогое ( может копию неудачную сделали , нелзя же такое в кинотеатрах да ещё за деньги показывать! ).3D отлично смотрится только надписью на обложке коробки с диском, задний план вообще замылен- лучше бы снимали на фоне белой простыни.А сюжет - на вкус и цвет... Автору спасибо за труды!
 

как ефект есть
 

да фильм отстой полный какое может быть 3д
 

Неее, такое 3D пусть сам Войтинский и смотрит. Как наснимал говна, так пускай его и сожрёт.
 

Еще не смотрел, но есть инфа, что конверт 2D в 3D.
 

Отменный тупейший трешак, да еще и коряво законверченный, единственная мысль после просмотра такого дерьма - отмывание бабла. Искренне сочувствую всем, кто ходил на это "кино" в кинотеатр.
А мне понравился последний скрин, невероятно мощная глубина получилась, как они это сделали? :)
 

Страница 1 из 2

1, 2  След.