Торренты   
 
 

 

Царство растений / Kingdom of Plants [2012, BDrip, half1080p, Anamorph SideBySide]

Рейтинг 3D:
2 голосов
9.5
Рейтинг фильма:
2 голосов
9.5
 
Вы должны быть авторизированы,
чтобы ставить оценки


Царство растений / Kingdom of Plants
Год выпуска: 2012
Страна: Великобритания (Atlantic Productions, Sky 3D)
Жанр: Документальный
Продолжительность: 00:52:26 + 00:52:17 + 00:52:17
Перевод: Авторский одноголосый закадровый - В. Курдов
Режиссер: Мартин Уильямс
Автор и ведущий: Дэвид Аттенборо
Описание: Познавательная экскурсия по Королевскому ботаническому саду Кью (Великобритания) в сопровождении знаменитого ведущего.
В этом сенсационном документальном цикле, снимавшемся в течение года, сэр Дэвид Аттенборо исследует жизнь растений и их увлекательный мир, от самых причудливых до самых прекрасных его обитателей. Используя превосходно снятые кадры в качестве наглядного сопровождения своего неповторимого стиля повествования, сэр Дэвид прослеживает историю растений от появления их на суше до наших дней, где они играют жизненно важную роль в природе. Перейдя к их временной шкале, он показывает истинную природу растений, которые не менее агрессивные и подвижные, чем животные. Всё это происходит в одном уникальном месте, мире растений в миниатюре, где представлено около 90% всех известных видов – королевских ботанических садах в Кью. Это зрелищное путешествие по царству растений настолько широкомасштабное и захватывающее, что способно удивить даже самых равнодушных к ботанике людей.
Качество: BDrip by Alexman©
Формат 3D: Anamorph SideBySide / Горизонтальная анаморфная стереопара
Порядок ракурсов: левый ракурс первый
Видео: AVC, High@L4.1, 1920x1080, 23.976 fps, 13.3 Mbps / 12.6 Mbps / 12.2 Mbps
Аудио:
№1 - Одноголосый закадровый, В.Курдов / AC3 / 48 KHz / 5.1 ch / 640 Kbps
№2 - Английский оригинальный / AC3 / 48 KHz / 5.1 ch / 640 Kbps
Субтитры:
№1 - Русские полные
№2 - Английские полные

MediaInfo

Часть 1

General
Unique ID : 184519582869689051452161417680342259955 (0x8AD12DD2C7028AADACB54DC6A8B498F3)
Complete name : Kingdom of Plants. Episode 1. Life in the Wet Zone [Царство растений. Часть 1 - Жизнь во влажном климате] (2012) AVO hSbS 1080p by Alexman©.mkv
Format : Matroska
Format version : Version 4 / Version 2
File size : 5.44 GiB
Duration : 52mn 26s
Overall bit rate : 14.8 Mbps
Movie name : Kingdom of Plants. Episode 1. Life in the Wet Zone [Царство растений. Часть 1 - Жизнь во влажном климате] (2012) AVO hSbS 1080p by Alexman©
Encoded date : UTC 2013-01-30 06:26:37
Writing application : mkvmerge v6.0.0 ('Coming Up For Air') built on Jan 20 2013 09:52:00
Writing library : libebml v1.3.0 + libmatroska v1.4.0
Video
ID : 1
Format : AVC
Format/Info : Advanced Video Codec
Format profile : High@L4.1
Format settings, CABAC : Yes
Format settings, ReFrames : 4 frames
Codec ID : V_MPEG4/ISO/AVC
Duration : 52mn 26s
Bit rate : 13.3 Mbps
Width : 1 920 pixels
Height : 1 080 pixels
Display aspect ratio : 16:9
Frame rate mode : Constant
Frame rate : 23.976 fps
Color space : YUV
Chroma subsampling : 4:2:0
Bit depth : 8 bits
Scan type : Progressive
Bits/(Pixel*Frame) : 0.267
Stream size : 4.86 GiB (89%)
Writing library : x264 core 129 r2245 bc13772
Encoding settings : cabac=1 / ref=4 / deblock=1:-3:-3 / analyse=0x3:0x113 / me=umh / subme=9 / psy=1 / psy_rd=1.00:0.15 / mixed_ref=1 / me_range=32 / chroma_me=1 / trellis=2 / 8x8dct=1 / cqm=0 / deadzone=21,11 / fast_pskip=1 / chroma_qp_offset=-3 / threads=4 / lookahead_threads=1 / sliced_threads=0 / nr=0 / decimate=1 / interlaced=0 / bluray_compat=0 / constrained_intra=0 / bframes=4 / b_pyramid=2 / b_adapt=2 / b_bias=0 / direct=3 / weightb=1 / open_gop=0 / weightp=2 / keyint=250 / keyint_min=23 / scenecut=40 / intra_refresh=0 / rc_lookahead=60 / rc=crf / mbtree=1 / crf=18.0 / qcomp=0.60 / qpmin=0 / qpmax=69 / qpstep=4 / vbv_maxrate=40000 / vbv_bufsize=40000 / crf_max=0.0 / nal_hrd=none / ip_ratio=1.40 / aq=1:0.70
Language : English
Default : Yes
Forced : No
Audio #1
ID : 2
Format : AC-3
Format/Info : Audio Coding 3
Mode extension : CM (complete main)
Format settings, Endianness : Big
Codec ID : A_AC3
Duration : 52mn 26s
Bit rate mode : Constant
Bit rate : 640 Kbps
Channel(s) : 6 channels
Channel positions : Front: L C R, Side: L R, LFE
Sampling rate : 48.0 KHz
Bit depth : 16 bits
Compression mode : Lossy
Stream size : 240 MiB (4%)
Title : Одноголосый закадровый, В.Курдов
Language : Russian
Default : Yes
Forced : Yes
Audio #2
ID : 3
Format : AC-3
Format/Info : Audio Coding 3
Mode extension : CM (complete main)
Format settings, Endianness : Big
Codec ID : A_AC3
Duration : 52mn 26s
Bit rate mode : Constant
Bit rate : 640 Kbps
Channel(s) : 6 channels
Channel positions : Front: L C R, Side: L R, LFE
Sampling rate : 48.0 KHz
Bit depth : 16 bits
Compression mode : Lossy
Stream size : 240 MiB (4%)
Title : English original
Language : English
Default : No
Forced : No
Text #1
ID : 4
Format : UTF-8
Codec ID : S_TEXT/UTF8
Codec ID/Info : UTF-8 Plain Text
Title : Русские полные
Language : Russian
Default : Yes
Forced : No
Text #2
ID : 5
Format : UTF-8
Codec ID : S_TEXT/UTF8
Codec ID/Info : UTF-8 Plain Text
Title : English full
Language : English
Default : No
Forced : No

Log x264

Часть 2

General
Unique ID : 172468192008522508224519991388199591709 (0x81C02A611D62D73DAA39AE6B62E61F1D)
Complete name : Kingdom of Plants. Episode 2. Solving the Secrets [Царство растений. Часть 2 - Раскрывая секреты] (2012) AVO hSbS 1080p by Alexman©.mkv
Format : Matroska
Format version : Version 4 / Version 2
File size : 5.19 GiB
Duration : 52mn 17s
Overall bit rate : 14.2 Mbps
Movie name : Kingdom of Plants. Episode 2. Solving the Secrets [Царство растений. Часть 2 - Раскрывая секреты] (2012) AVO hSbS 1080p by Alexman©
Encoded date : UTC 2013-01-30 08:28:54
Writing application : mkvmerge v6.0.0 ('Coming Up For Air') built on Jan 20 2013 09:52:00
Writing library : libebml v1.3.0 + libmatroska v1.4.0
Video
ID : 1
Format : AVC
Format/Info : Advanced Video Codec
Format profile : High@L4.1
Format settings, CABAC : Yes
Format settings, ReFrames : 4 frames
Codec ID : V_MPEG4/ISO/AVC
Duration : 52mn 17s
Bit rate : 12.6 Mbps
Width : 1 920 pixels
Height : 1 080 pixels
Display aspect ratio : 16:9
Frame rate mode : Constant
Frame rate : 23.976 fps
Color space : YUV
Chroma subsampling : 4:2:0
Bit depth : 8 bits
Scan type : Progressive
Bits/(Pixel*Frame) : 0.254
Stream size : 4.62 GiB (89%)
Writing library : x264 core 129 r2245 bc13772
Encoding settings : cabac=1 / ref=4 / deblock=1:-3:-3 / analyse=0x3:0x113 / me=umh / subme=9 / psy=1 / psy_rd=1.00:0.15 / mixed_ref=1 / me_range=32 / chroma_me=1 / trellis=2 / 8x8dct=1 / cqm=0 / deadzone=21,11 / fast_pskip=1 / chroma_qp_offset=-3 / threads=4 / lookahead_threads=1 / sliced_threads=0 / nr=0 / decimate=1 / interlaced=0 / bluray_compat=0 / constrained_intra=0 / bframes=4 / b_pyramid=2 / b_adapt=2 / b_bias=0 / direct=3 / weightb=1 / open_gop=0 / weightp=2 / keyint=250 / keyint_min=23 / scenecut=40 / intra_refresh=0 / rc_lookahead=60 / rc=crf / mbtree=1 / crf=18.0 / qcomp=0.60 / qpmin=0 / qpmax=69 / qpstep=4 / vbv_maxrate=40000 / vbv_bufsize=40000 / crf_max=0.0 / nal_hrd=none / ip_ratio=1.40 / aq=1:0.70
Language : English
Default : Yes
Forced : No
Audio #1
ID : 2
Format : AC-3
Format/Info : Audio Coding 3
Mode extension : CM (complete main)
Format settings, Endianness : Big
Codec ID : A_AC3
Duration : 52mn 17s
Bit rate mode : Constant
Bit rate : 640 Kbps
Channel(s) : 6 channels
Channel positions : Front: L C R, Side: L R, LFE
Sampling rate : 48.0 KHz
Bit depth : 16 bits
Compression mode : Lossy
Stream size : 239 MiB (5%)
Title : Одноголосый закадровый, В.Курдов
Language : Russian
Default : Yes
Forced : Yes
Audio #2
ID : 3
Format : AC-3
Format/Info : Audio Coding 3
Mode extension : CM (complete main)
Format settings, Endianness : Big
Codec ID : A_AC3
Duration : 52mn 17s
Bit rate mode : Constant
Bit rate : 640 Kbps
Channel(s) : 6 channels
Channel positions : Front: L C R, Side: L R, LFE
Sampling rate : 48.0 KHz
Bit depth : 16 bits
Compression mode : Lossy
Stream size : 239 MiB (5%)
Title : English original
Language : English
Default : No
Forced : No
Text #1
ID : 4
Format : UTF-8
Codec ID : S_TEXT/UTF8
Codec ID/Info : UTF-8 Plain Text
Title : Русские полные
Language : Russian
Default : Yes
Forced : No
Text #2
ID : 5
Format : UTF-8
Codec ID : S_TEXT/UTF8
Codec ID/Info : UTF-8 Plain Text
Title : English full
Language : English
Default : No
Forced : No

Log x264

Часть 3

General
Unique ID : 253647254317247561451658888703995318467 (0xBED2AF2A5C466E6B9F206118ECF490C3)
Complete name : Kingdom of Plants. Episode 3. Survival [Царство растений. Часть 3 - Выживание] (2012) AVO hSbS 1080p by Alexman©.mkv
Format : Matroska
Format version : Version 4 / Version 2
File size : 5.04 GiB
Duration : 52mn 17s
Overall bit rate : 13.8 Mbps
Movie name : Kingdom of Plants. Episode 3. Survival [Царство растений. Часть 3 - Выживание] (2012) AVO hSbS 1080p by Alexman©
Encoded date : UTC 2013-01-30 14:49:31
Writing application : mkvmerge v6.0.0 ('Coming Up For Air') built on Jan 20 2013 09:52:00
Writing library : libebml v1.3.0 + libmatroska v1.4.0
Video
ID : 1
Format : AVC
Format/Info : Advanced Video Codec
Format profile : High@L4.1
Format settings, CABAC : Yes
Format settings, ReFrames : 4 frames
Codec ID : V_MPEG4/ISO/AVC
Duration : 52mn 17s
Bit rate : 12.2 Mbps
Width : 1 920 pixels
Height : 1 080 pixels
Display aspect ratio : 16:9
Frame rate mode : Constant
Frame rate : 23.976 fps
Color space : YUV
Chroma subsampling : 4:2:0
Bit depth : 8 bits
Scan type : Progressive
Bits/(Pixel*Frame) : 0.246
Stream size : 4.47 GiB (89%)
Writing library : x264 core 129 r2245 bc13772
Encoding settings : cabac=1 / ref=4 / deblock=1:-3:-3 / analyse=0x3:0x113 / me=umh / subme=9 / psy=1 / psy_rd=1.00:0.15 / mixed_ref=1 / me_range=32 / chroma_me=1 / trellis=2 / 8x8dct=1 / cqm=0 / deadzone=21,11 / fast_pskip=1 / chroma_qp_offset=-3 / threads=4 / lookahead_threads=1 / sliced_threads=0 / nr=0 / decimate=1 / interlaced=0 / bluray_compat=0 / constrained_intra=0 / bframes=4 / b_pyramid=2 / b_adapt=2 / b_bias=0 / direct=3 / weightb=1 / open_gop=0 / weightp=2 / keyint=250 / keyint_min=23 / scenecut=40 / intra_refresh=0 / rc_lookahead=60 / rc=crf / mbtree=1 / crf=18.0 / qcomp=0.60 / qpmin=0 / qpmax=69 / qpstep=4 / vbv_maxrate=40000 / vbv_bufsize=40000 / crf_max=0.0 / nal_hrd=none / ip_ratio=1.40 / aq=1:0.70
Language : English
Default : Yes
Forced : No
Audio #1
ID : 2
Format : AC-3
Format/Info : Audio Coding 3
Mode extension : CM (complete main)
Format settings, Endianness : Big
Codec ID : A_AC3
Duration : 52mn 17s
Bit rate mode : Constant
Bit rate : 640 Kbps
Channel(s) : 6 channels
Channel positions : Front: L C R, Side: L R, LFE
Sampling rate : 48.0 KHz
Bit depth : 16 bits
Compression mode : Lossy
Stream size : 239 MiB (5%)
Title : Одноголосый закадровый, В.Курдов
Language : Russian
Default : Yes
Forced : Yes
Audio #2
ID : 3
Format : AC-3
Format/Info : Audio Coding 3
Mode extension : CM (complete main)
Format settings, Endianness : Big
Codec ID : A_AC3
Duration : 52mn 17s
Bit rate mode : Constant
Bit rate : 640 Kbps
Channel(s) : 6 channels
Channel positions : Front: L C R, Side: L R, LFE
Sampling rate : 48.0 KHz
Bit depth : 16 bits
Compression mode : Lossy
Stream size : 239 MiB (5%)
Title : English original
Language : English
Default : No
Forced : No
Text #1
ID : 4
Format : UTF-8
Codec ID : S_TEXT/UTF8
Codec ID/Info : UTF-8 Plain Text
Title : Русские полные
Language : Russian
Default : Yes
Forced : No
Text #2
ID : 5
Format : UTF-8
Codec ID : S_TEXT/UTF8
Codec ID/Info : UTF-8 Plain Text
Title : English full
Language : English
Default : No
Forced : No

Log x264

Скриншоты

Анимированные скриншоты для оценки 3Д-эффекта

Проверено на ТВ Samsung 40C7000 и Samsung 46D7000
Благодарности релизеру (6)

Торрент:

Статус:

Размер:

Зарегистрирован   [ 2013-02-05 16:49 ]

проверено

15.67 GB

 
 Мнение о фильме (6)





Alexman,
Большая просьба выложить дорожку с русским переводом отдельно или дать сссылку на скачивание.
 
001_mailinator2_com Профиль 01-Фев-2013 03:38

К сожалению 3 часть не пошла на LG. А посмотреть очень хочется.
 

У меня LG вообще не видит не одной части.
 

Я переименовала название файла и все пошло.
 

Я переименовала название файла и все пошло.
Правильное решение! Длинноватое получилось, уж извините :)
 

Первая часть безупречна. Высокое качество изображения и 3D, великолепный текст и звук. Во второй части пара сбоев (переход в меню). В третьей части речь с большими искажениями - слушать и понимать трудно.
Почему-то русская речь получалась при включении язык аудио - "English".
Полезно в познавательных целях и, одновременно, доставляет эстетическое наслаждение.