Торренты   
 
 


Джунгли (Александр Войтинский) [2012 г., BDRip, Full OverUnder]

Рейтинг 3D:
62 голосов
4.0
Рейтинг фильма:
71 голосов
5.0
 
Вы должны быть авторизированы,
чтобы ставить оценки


Джунгли
Год выпуска: 2012
Страна: Россия
Жанр: мелодрама, комедия, приключения
Продолжительность: 01:23:30
Перевод: Не требуется
Режиссер: Александр Войтинский
В ролях: Сергей Светлаков, Вера Брежнева, Александр Макогон, Александр Половцев, Марина Дюжева, Михаил Ефремов, Ирина Медведева, Ампорн Панкраток,
Соонтри Кхумжулла, Сомсак Падуга
Описание: У Сергея и Марины в семейной жизни наступил кризис. Во время одной из ссор, они решают поехать в экзотическое путешествие. Всю дорогу между супругами не утихают ссоры, которые в конце концов приводят к тому, что они оказываются на необитаемом острове, затерянном в океане. Вместо того чтобы вместе бороться за выживание, наши герои продолжают выяснять отношения, постепенно переходя к настоящим боевым действиям. В довершение несчастий оказывается, что остров населен племенем воинствующих туземцев.
Релиз группы:
Формат 3D: OverUnder BDRip, Full
Видео: AVC, High@L4.0, 1920x1568, 23.976 fps, 22,6 Мбит/сек
Аудио: DTS, 6 каналов, 1510 Кбит/сек, 48,0 КГц

Скриншоты




MediaInfo

Общее
Уникальный идентификатор : 255029453080351856146973284228328607785 (0xBFDCE2D37095143996DDDA5CB40C5029)
Полное имя : E:\STEREO\Djungle_1080p_Rip by Dag13.mkv
Формат : Matroska
Версия формата : Version 2
Размер файла : 14,3 Гбайт
Продолжительность : 1 ч. 23 м.
Общий поток : 24,6 Мбит/сек
Дата кодирования : UTC 2013-01-31 10:24:48
Программа кодирования : mkvmerge v3.4.0 ('Rapunzel') сборка от May 15 2010 09:38:20
Библиотека кодирования : libebml v0.8.0 + libmatroska v0.9.0
Видео
Идентификатор : 1
Формат : AVC
Формат/Информация : Advanced Video Codec
Профиль формата : High@L5.0
Параметр CABAC формата : Да
Параметр ReFrames формата : 4 кадра
Идентификатор кодека : V_MPEG4/ISO/AVC
Продолжительность : 1 ч. 23 м.
Битрейт : 22,6 Мбит/сек
Ширина : 1920 пикселей
Высота : 1568 пикселей
Соотношение сторон : 1,224
Режим частоты кадров : Постоянный
Частота кадров : 23,976 кадра/сек
Цветовое пространство : YUV
Субдискретизация насыщенности : 4:2:0
Битовая глубина : 8 бит
Тип развёртки : Прогрессивная
Бит/(Пиксели*Кадры) : 0.313
Размер потока : 13,2 Гбайт (92%)
Заголовок : Rip by Dag13
Библиотека кодирования : x264 core 120 r2145 748fe16
Настройки программы : cabac=1 / ref=4 / deblock=1:-3:-3 / analyse=0x3:0x113 / me=umh / subme=9 / psy=1 / psy_rd=1.00:0.00 / mixed_ref=1 / me_range=16 / chroma_me=1 / trellis=1 / 8x8dct=1 / cqm=0 / deadzone=21,11 / fast_pskip=1 / chroma_qp_offset=-2 / threads=9 / sliced_threads=0 / nr=0 / decimate=1 / interlaced=0 / bluray_compat=0 / constrained_intra=0 / bframes=6 / b_pyramid=2 / b_adapt=2 / b_bias=0 / direct=3 / weightb=1 / open_gop=0 / weightp=2 / keyint=250 / keyint_min=23 / scenecut=40 / intra_refresh=0 / rc_lookahead=60 / rc=crf / mbtree=1 / crf=18.0 / qcomp=0.60 / qpmin=1 / qpmax=69 / qpstep=4 / ip_ratio=1.40 / aq=1:1.00
Язык : English
Default : Нет
Forced : Нет
Аудио
Идентификатор : 2
Формат : DTS
Формат/Информация : Digital Theater Systems
Идентификатор кодека : A_DTS
Продолжительность : 1 ч. 23 м.
Вид битрейта : Постоянный
Битрейт : 1510 Кбит/сек
Каналы : 6 каналов
Расположение каналов : Front: L C R, Side: L R, LFE
Частота : 48,0 КГц
Битовая глубина : 16 бит
Метод сжатия : С потерями
Размер потока : 902 Мбайт (6%)
Язык : Russian
Default : Да
Forced : Нет
На встроенных ТВ-плейерах показывать НЕ будет!!!
Остальные раздачи этого фильма (4)
Благодарности релизеру (8)

Торрент:

Статус:

Размер:

Зарегистрирован   [ 2013-01-31 18:26 ]

проверено

14.34 GB

 
 Мнение о фильме (26)

1, 2  След.






Дополнительная информация: За качество 3D-эффектов претензии просьба высказывать создателям фильма :)
да уж, еще тот "шедевр" они сотворили :)
 

еще тот "шедевр" они сотворили :)
Не "Аватар" уж точно :)
 

За рип спасибо) Конверт конечно убогий.
Доставила рука в этом скрине xDD
 

Доставила рука в этом скрине xDD

А мне больше тётенькино лицо здесь понравилось

 

это конверт??они ж по моему только в 2д??
 

gumbatova1, Уже по скриншотам вижу довольно грубый конверт.
 

gumbatova1, Не только в 2d. Я лично на 3d в кинотеатр ходил.
 

во блин, а я и не знал что в 3д. Смотрел ТСку когда вышла. Эх.
 

Скажем, прогресс на лицо, это я про конвертацию. Уровень примерно Конана. Вспомните Темный мир, Бой с тенью, Белку со Стрелкой, вот где ужас был. Жаль, конечно, что российское стерео начал вытеснять конверт, но петицию в пленум нам уже не подать. Радует что качество потихоньку растет. Как минимум четыре слоя глубины в некоторых сценах.
 

Фуфло конверт((((((
 

Жаль, конечно, что российское стерео начал вытеснять конверт.
Вроде бы говорили, что единственную нашу стереовидеокамеру сломали во время съемок порутчика ржевского?
 

Вроде бы говорили, что единственную нашу стереовидеокамеру сломали во время съемок порутчика ржевского?
могли и еще одну купить, бюджеты то позволяют :) тут мне кажется дело не в этом ;)
 

Dag13, ИМХО уровень Конана - это уровень неприемлимый. При его просмотре, выдавленные плоские слои утомили меня очень быстро и я досматривал фильм в 2D.
 

А не пробывали менять местами кадры левый с правым в плеере у кого выдавленная картинка? Хорошее 3д ...и глубина нормальная
 

Даа... Качество самой картинки убогое ( может копию неудачную сделали , нелзя же такое в кинотеатрах да ещё за деньги показывать! ).3D отлично смотрится только надписью на обложке коробки с диском, задний план вообще замылен- лучше бы снимали на фоне белой простыни.А сюжет - на вкус и цвет... Автору спасибо за труды!
 

как ефект есть
 

да фильм отстой полный какое может быть 3д
 

Неее, такое 3D пусть сам Войтинский и смотрит. Как наснимал говна, так пускай его и сожрёт.
 

Еще не смотрел, но есть инфа, что конверт 2D в 3D.
 

Отменный тупейший трешак, да еще и коряво законверченный, единственная мысль после просмотра такого дерьма - отмывание бабла. Искренне сочувствую всем, кто ходил на это "кино" в кинотеатр.
А мне понравился последний скрин, невероятно мощная глубина получилась, как они это сделали? :)
 

Страница 1 из 2

1, 2  След.