Торренты   
 
 


Три богатыря на дальних берегах 3D [2012, BDrip, half1080p, Anamorph SideBySide]

Рейтинг 3D:
33 голосов
6.5
Рейтинг фильма:
33 голосов
6.5
 
Вы должны быть авторизированы,
чтобы ставить оценки


Три богатыря на дальних берегах 3D
Год выпуска: 2012
Страна: Россия
Жанр: мультфильм, комедия, приключения
Продолжительность: 01:11:18
Перевод: Не требуется
Режиссер: Константин Феоктистов
Роли озвучивали: Дмитрий Быковский-Ромашов, Валерий Соловьев, Олег Куликович, Сергей Маковецкий, Дмитрий Высоцкий, Фёдор Бондарчук, Елизавета Боярская, Мария Цветкова-Овсянникова, Елена Шульман, Лия Медведева
Описание: На этот раз Алеша Попович, Добрыня Никитич и Илья Муромец, благодаря козням коварной Бабы Яги, оказываются за семью морями на острове, на котором живут туземцы и страшный Гомума. В их отсутствие купец Колыван решают вместе с Бабой-Ягой захватить царство и забрать власть у князя Киевского. На помощь незадачливому правителю приходит конь Юлий, а также жены богатырей и их многочисленные родственники. Словом, богатырей и зрителей ждут приключения на дальних берегах, обыкновенные и невероятные
Качество: BDrip by Alexman©
Формат 3D: Anamorph SideBySide / Горизонтальная анаморфная стереопара
Порядок ракурсов: левый ракурс первый
Видео: AVC, High@L4.1, 1920x1080, 23.976 fps, 6 050 Kbps
Аудио: Русский оригинальный / AC3 / 48 KHz / 5.1 ch / 640 Kbps

MediaInfo

General
Unique ID : 183059938823627647174402066692574179257 (0x89B80FD0CD4016EEAFE16493EA3E6FB9)
Complete name : Три богатыря на дальних берегах (2012) hSbS 1080p by Alexman©.mkv
Format : Matroska
Format version : Version 4 / Version 2
File size : 3.40 GiB
Duration : 1h 11mn
Overall bit rate : 6 826 Kbps
Movie name : Три богатыря на дальних берегах (2012) hSbS 1080p by Alexman©
Encoded date : UTC 2013-02-03 17:37:30
Writing application : mkvmerge v6.0.0 ('Coming Up For Air') built on Jan 20 2013 09:52:00
Writing library : libebml v1.3.0 + libmatroska v1.4.0
Video
ID : 1
Format : AVC
Format/Info : Advanced Video Codec
Format profile : High@L4.1
Format settings, CABAC : Yes
Format settings, ReFrames : 4 frames
Codec ID : V_MPEG4/ISO/AVC
Duration : 1h 11mn
Bit rate : 6 050 Kbps
Width : 1 920 pixels
Height : 1 080 pixels
Display aspect ratio : 16:9
Frame rate mode : Constant
Frame rate : 23.976 fps
Color space : YUV
Chroma subsampling : 4:2:0
Bit depth : 8 bits
Scan type : Progressive
Bits/(Pixel*Frame) : 0.122
Stream size : 3.01 GiB (89%)
Writing library : x264 core 129 r2245 bc13772
Encoding settings : cabac=1 / ref=4 / deblock=1:-3:-3 / analyse=0x3:0x113 / me=umh / subme=9 / psy=1 / psy_rd=1.00:0.15 / mixed_ref=1 / me_range=32 / chroma_me=1 / trellis=2 / 8x8dct=1 / cqm=0 / deadzone=21,11 / fast_pskip=1 / chroma_qp_offset=-3 / threads=4 / lookahead_threads=1 / sliced_threads=0 / nr=0 / decimate=1 / interlaced=0 / bluray_compat=0 / constrained_intra=0 / bframes=4 / b_pyramid=2 / b_adapt=2 / b_bias=0 / direct=3 / weightb=1 / open_gop=0 / weightp=2 / keyint=250 / keyint_min=23 / scenecut=40 / intra_refresh=0 / rc_lookahead=60 / rc=crf / mbtree=1 / crf=16.0 / qcomp=0.60 / qpmin=0 / qpmax=69 / qpstep=4 / vbv_maxrate=40000 / vbv_bufsize=40000 / crf_max=0.0 / nal_hrd=none / ip_ratio=1.40 / aq=1:0.70
Language : Russian
Default : Yes
Forced : Yes
Audio
ID : 2
Format : AC-3
Format/Info : Audio Coding 3
Mode extension : CM (complete main)
Format settings, Endianness : Big
Codec ID : A_AC3
Duration : 1h 11mn
Bit rate mode : Constant
Bit rate : 640 Kbps
Channel(s) : 6 channels
Channel positions : Front: L C R, Side: L R, LFE
Sampling rate : 48.0 KHz
Bit depth : 16 bits
Compression mode : Lossy
Stream size : 326 MiB (9%)
Title : Оригинальный
Language : Russian
Default : Yes
Forced : Yes

Скриншоты


Анимированные скриншоты для оценки 3Д-эффекта


Проверено на ТВ Samsung 40C7000, Samsung 46D7000 и Philips 42PFL7606H
Остальные раздачи этого фильма (3)
Благодарности релизеру (26)

Торрент:

Статус:

Размер:

Зарегистрирован   [ 2013-02-03 21:49 ]

проверено

3.4 GB

 
 Мнение о фильме (5)





По сюжету, на мой взгляд и вкус, этот мульт самый худший из всего этого сериала. Самый первый мульт про Алешу Поповича и Тугарина Змея был самый ржачный. Следующие два тоже ничего. Дальше хуже. Ну, а 3D здесь реализовано слабо, опять же это только мое личное мнение.
 

Сюжет здесь и правда слабенький, видно, что мультик делали, лишь бы франшизу продолжить. А 3D и вовсе никакущее, не понятно, зачем оно здесь
 

Отстой полный!
 

Присоединяюсь к предыдущим. Ну а сам фильм в коллекцию.
 

Вот, блин... А я качаю, дочка просит :)