Торренты   
 
 


Три богатыря на дальних берегах [2012 г., BDrip, Anamorph OverUnder]

Рейтинг 3D:
33 голосов
6.5
Рейтинг фильма:
33 голосов
6.5
 
Вы должны быть авторизированы,
чтобы ставить оценки



Три богатыря на дальних берегах

Год выпуска: 2012
Страна: Россия (Кинокомпания CTB, Анимационная студия Мельница)
Жанр: мультфильм, комедия, приключения
Продолжительность: 01:11:18
Перевод: Не требуется
Русские субтитры: нет
Режиссер: Константин Феоктистов
Сценарий: Александр Боярский
Продюсер: Александр Боярский, Сергей Сельянов
Композитор: Михаил Чертищев
Художник: Лидия Савина
Роли озвучивали:
Дмитрий Быковский-Ромашов, Валерий Соловьев, Олег Куликович, Сергей Маковецкий, Дмитрий Высоцкий, Фёдор Бондарчук, Елизавета Боярская, Мария Цветкова-Овсянникова, Елена Шульман, Лия Медведева и др.
Описание:
На этот раз Алеша Попович, Добрыня Никитич и Илья Муромец, благодаря козням коварной Бабы Яги, оказываются за семью морями на острове, на котором живут туземцы и страшный Гомума. В их отсутствие купец Колыван решают вместе с Бабой-Ягой захватить царство и забрать власть у князя Киевского. На помощь незадачливому правителю приходит конь Юлий, а также жены богатырей и их многочисленные родственники. Словом, богатырей и зрителей ждут приключения на дальних берегах, обыкновенные и невероятные.
--Релиз группы:

Премьера: 27 декабря 2012
Релиз на Blu-Ray: 31 января 2013, «Lizard Cinema Trade»


Проверено на встроенном плейере ТВ LG 42LW4500
--
Качество: BDrip by StarStranger
Контейнер: MKV
Формат 3D: Anamorph OverUnder / Вертикальная анаморфная стереопара
Порядок ракурсов: левый ракурс первый
Видео кодек: x264
Аудио кодек: AC3
Видео: AVC / 23,976 fps / 1920х1080p / 5750 Kbps
Аудио: Русский / AC3 / 48 KHz / 5.1 ch / 640 Kbps
Субтитры: отсутствуют

MediaInfo

Код:
Общее
Уникальный идентификатор                 : 197053718996583589397507358521993878444 (0x943F2A725126330DBDDECA40D06A5BAC)
Полное имя                               : D:\3D-RuGroup\Мультфильмы\ТриБогатыряНаДальнихБерегах.3D.2012.BD3DRip.Half.OU.x264.3D-RuGroup.mkv
Формат                                   : Matroska
Версия формата                           : Version 2
Размер файла                             : 3,25 Гбайт
Продолжительность                        : 1 ч. 11 м.
Общий поток                              : 6520 Кбит/сек
Название фильма                          : Три богатыря на дальних берегах 3D release 3D-RuGroup rip by StarStranger
Дата кодирования                         : UTC 2013-02-03 19:42:15
Программа кодирования                    : mkvmerge v3.4.0 ('Rapunzel') сборка от May 15 2010 09:38:20
Библиотека кодирования                   : libebml v0.8.0 + libmatroska v0.9.0
Видео
Идентификатор                            : 1
Формат                                   : AVC
Формат/Информация                        : Advanced Video Codec
Профиль формата                          : High@L4.1
Параметр CABAC формата                   : Да
Параметр ReFrames формата                : 4 кадра
Идентификатор кодека                     : V_MPEG4/ISO/AVC
Продолжительность                        : 1 ч. 11 м.
Битрейт                                  : 5750 Кбит/сек
Ширина                                   : 1920 пикселей
Высота                                   : 1080 пикселей
Соотношение сторон                       : 16:9
Режим частоты кадров                     : Постоянный
Частота кадров                           : 23,976 кадра/сек
Цветовое пространство                    : YUV
Субдискретизация насыщенности            : 4:2:0
Битовая глубина                          : 8 бит
Тип развёртки                            : Прогрессивная
Бит/(Пиксели*Кадры)                      : 0.116
Размер потока                            : 2,86 Гбайт (88%)
Библиотека кодирования                   : x264 core 129 r2230 1cffe9f
Настройки программы                      : cabac=1 / ref=4 / deblock=1:-3:-3 / analyse=0x3:0x133 / me=umh / subme=9 / psy=1 / psy_rd=1.00:0.15 / mixed_ref=1 / me_range=32 / chroma_me=1 / trellis=2 / 8x8dct=1 / cqm=0 / deadzone=21,11 / fast_pskip=0 / chroma_qp_offset=-3 / threads=3 / lookahead_threads=1 / sliced_threads=0 / nr=0 / decimate=1 / interlaced=0 / bluray_compat=0 / constrained_intra=0 / bframes=7 / b_pyramid=2 / b_adapt=2 / b_bias=0 / direct=3 / weightb=1 / open_gop=0 / weightp=2 / keyint=250 / keyint_min=23 / scenecut=40 / intra_refresh=0 / rc_lookahead=60 / rc=crf / mbtree=1 / crf=16.5 / qcomp=0.70 / qpmin=0 / qpmax=69 / qpstep=4 / vbv_maxrate=50000 / vbv_bufsize=50000 / crf_max=0.0 / nal_hrd=none / ip_ratio=1.40 / aq=1:0.90
Default                                  : Нет
Forced                                   : Нет
Аудио
Идентификатор                            : 2
Формат                                   : AC-3
Формат/Информация                        : Audio Coding 3
Расширение режима                        : CM (complete main)
Параметр Endianness формата              : Big
Идентификатор кодека                     : A_AC3
Продолжительность                        : 1 ч. 11 м.
Вид битрейта                             : Постоянный
Битрейт                                  : 640 Кбит/сек
Каналы                                   : 6 каналов
Расположение каналов                     : Front: L C R, Side: L R, LFE
Частота                                  : 48,0 КГц
Битовая глубина                          : 16 бит
Метод сжатия                             : С потерями
Размер потока                            : 326 Мбайт (10%)
Язык                                     : Russian
Default                                  : Нет
Forced                                   : Нет

Скриншоты

Остальные раздачи этого фильма (3)
Благодарности релизеру (41)

Торрент:

Статус:

Размер:

Зарегистрирован   [ 2013-02-04 00:00 ]

проверено

3.25 GB

 
 Мнение о фильме (5)





По сюжету, на мой взгляд и вкус, этот мульт самый худший из всего этого сериала. Самый первый мульт про Алешу Поповича и Тугарина Змея был самый ржачный. Следующие два тоже ничего. Дальше хуже. Ну, а 3D здесь реализовано слабо, опять же это только мое личное мнение.
 

Сюжет здесь и правда слабенький, видно, что мультик делали, лишь бы франшизу продолжить. А 3D и вовсе никакущее, не понятно, зачем оно здесь
 

Отстой полный!
 

Присоединяюсь к предыдущим. Ну а сам фильм в коллекцию.
 

Вот, блин... А я качаю, дочка просит :)