Торренты   
 
 

 

Корпорация монстров / Monsters, Inc. [2001 (2013), BDrip, half1080p, Anamorph SideBySide]

Рейтинг 3D:
63 голосов
8.6
Рейтинг фильма:
73 голосов
9.1
 
Вы должны быть авторизированы,
чтобы ставить оценки


© Закрыто правообладателем
Год выпуска: 2001 (2013)
Страна: США (Disney - PIXAR)
Жанр: мультфильм, фэнтези, комедия, приключения, семейный
Продолжительность: 01:32:10
Перевод: Профессиональный (полное дублирование)
Режиссер: Пит Доктер, Дэвид Силверман, Ли Анкрич
Роли озвучивали:
Джон Гудмен, Билли Кристал, Мэри Гиббс, Стив Бушеми, Джеймс Коберн, Дженнифер Тилли, Боб Питерсон, Джон Ратценбергер, Фрэнк Оз, Дэниэл Джерсон и др.
Роли дублировали:
Сергей Паршин, Олег Куликович, Лидия Семёнова, Евгений Дятлов, Борис Улитин, Татьяна Михалевкина, Наталья Данилова, Артур Ваха, Валерий Захарьев, Валерий Кухарешин, Алексей Гурьев, Станислав Концевич, Станислав Соколов, Сергей Воробьев
Описание:
Склизский гад в сливном бачке, мохнатый зверь, похожий на чудовище из «Аленького цветочка», гигантские мокрицы под кроватью — все они существуют на самом деле. Все, что им нужно — пугать детей, потому что из детских криков они получают электричество.
Полнометражный мультфильм рассказывает о кризисах в мире монстров, их жизни. Но однажды вся мирная жизнь монстров оказывается под угрозой: в их мир попадает ребенок. А с детьми столько хлопот, что они могут довести даже монстров.
Теперь в 3D!
Качество: BDrip by Alexman©
Формат 3D: Anamorph SideBySide / Горизонтальная анаморфная стереопара
Порядок ракурсов: левый ракурс первый
Видео: MPEG4 AVC, 11.2 Mbps, 1920x1080, 23.976 кадр/с
Аудио №1: Русский дублированный перевод / AC3 / 48 KHz / 5.1 ch / 640 Kbps
Аудио №2: Английский оригинальный / AC3 / 48 KHz / 5.1 ch / 640 Kbps

MediaInfo

General
Unique ID : 180999819514841252859375178901070660841 (0x882B4C177A21D707B78CF5735095C4E9)
Complete name : Monsters, Inc. 3D [Корпорация монстров 3Д] (2001, 2013) DUB hSbS 1080p by Alexman©.mkv
Format : Matroska
Format version : Version 4 / Version 2
File size : 8.21 GiB
Duration : 1h 32mn
Overall bit rate : 12.8 Mbps
Movie name : Monsters, Inc. 3D [Корпорация монстров 3Д] (2001, 2013) DUB hSbS 1080p by Alexman©
Encoded date : UTC 2013-02-07 06:21:35
Writing application : mkvmerge v6.0.0 ('Coming Up For Air') built on Jan 20 2013 09:52:00
Writing library : libebml v1.3.0 + libmatroska v1.4.0
Video
ID : 1
Format : AVC
Format/Info : Advanced Video Codec
Format profile : High@L4.1
Format settings, CABAC : Yes
Format settings, ReFrames : 4 frames
Codec ID : V_MPEG4/ISO/AVC
Duration : 1h 32mn
Bit rate : 11.2 Mbps
Width : 1 920 pixels
Height : 1 080 pixels
Display aspect ratio : 16:9
Frame rate mode : Constant
Frame rate : 23.976 fps
Color space : YUV
Chroma subsampling : 4:2:0
Bit depth : 8 bits
Scan type : Progressive
Bits/(Pixel*Frame) : 0.226
Stream size : 7.22 GiB (88%)
Writing library : x264 core 129 r2245 bc13772
Encoding settings : cabac=1 / ref=4 / deblock=1:-3:-3 / analyse=0x3:0x113 / me=umh / subme=9 / psy=1 / psy_rd=1.00:0.15 / mixed_ref=1 / me_range=32 / chroma_me=1 / trellis=2 / 8x8dct=1 / cqm=0 / deadzone=21,11 / fast_pskip=1 / chroma_qp_offset=-3 / threads=4 / lookahead_threads=1 / sliced_threads=0 / nr=0 / decimate=1 / interlaced=0 / bluray_compat=0 / constrained_intra=0 / bframes=4 / b_pyramid=2 / b_adapt=2 / b_bias=0 / direct=3 / weightb=1 / open_gop=0 / weightp=2 / keyint=250 / keyint_min=23 / scenecut=40 / intra_refresh=0 / rc_lookahead=60 / rc=crf / mbtree=1 / crf=16.0 / qcomp=0.60 / qpmin=0 / qpmax=69 / qpstep=4 / vbv_maxrate=40000 / vbv_bufsize=40000 / crf_max=0.0 / nal_hrd=none / ip_ratio=1.40 / aq=1:0.70
Language : English
Default : Yes
Forced : No
Audio #1
ID : 2
Format : AC-3
Format/Info : Audio Coding 3
Mode extension : CM (complete main)
Format settings, Endianness : Big
Codec ID : A_AC3
Duration : 1h 32mn
Bit rate mode : Constant
Bit rate : 640 Kbps
Channel(s) : 6 channels
Channel positions : Front: L C R, Side: L R, LFE
Sampling rate : 48.0 KHz
Bit depth : 16 bits
Compression mode : Lossy
Stream size : 422 MiB (5%)
Title : Русский дублированный
Language : Russian
Default : Yes
Forced : Yes
Audio #2
ID : 3
Format : AC-3
Format/Info : Audio Coding 3
Mode extension : CM (complete main)
Format settings, Endianness : Big
Codec ID : A_AC3
Duration : 1h 32mn
Bit rate mode : Constant
Bit rate : 640 Kbps
Channel(s) : 6 channels
Channel positions : Front: L C R, Side: L R, LFE
Sampling rate : 48.0 KHz
Bit depth : 16 bits
Compression mode : Lossy
Stream size : 422 MiB (5%)
Title : English
Language : English
Default : No
Forced : No

Скриншоты



Анимированные скриншоты для оценки 3Д-эффекта



Анаглифные скриншоты для оценки 3Д-эффекта






Проверено на ТВ Samsung 40C7000 и Samsung 46D7000
Остальные раздачи этого фильма (3)
Благодарности релизеру (15)

Торрент:

Статус:

Размер:

Зарегистрирован   [ 2013-02-07 11:06 ]

© закрыто правообладателем

8.21 GB

 
 Мнение о фильме (10)





marik05
Спасибо огромное за релиз! Такие шедевры стараемся поддержать!
Со своей стороны тоже делаем, что можем... :-)
 

Puhov, ахах, мне и при большей отдаче не приходило в голову писануться скриншотом ;)
 

tnrprog, дело не в "писануться" )) А в "побудить народ на здоровую соревновательность". Кто потянет конечно 8-))
Да и цифра красивая, совсем не специально получилась...))
 

спасибо!мультик красивый!
 

классный мульт.
 

Мультфильм классный 3D в норме.
 

интересный мульт спасибо
 

мне интересно они как переводили кадр за кадром с помощью карты глубины или как то по новой отрендерили 2 ракурс?
 

или как то по новой отрендерили 2 ракурс?
Все полигоны мульта сохраняются, то есть в любой момент его можно отрендерить по новой. В данном случае достаточно добавить вторую виртуальную камеру.
 

Мульт классный, перевод правда меньше понравился чем когда смотрел давным давно. П.С. этот мульт можно найти на др торрент ресурсах, где он еще не закрыт для раздачи)