Торренты   
 
 

 

Кoрпoрaция монcтров в 3Д / Mоnstеrs, Inc. 3D (Пит Доктер) [2001, мультфильм, фэнтези, комедия, приключения., BDrip, 1080p, Full OverUnder

Рейтинг 3D:
63 голосов
8.6
Рейтинг фильма:
73 голосов
9.1
 
Вы должны быть авторизированы,
чтобы ставить оценки


Корпорация монстров / Monsters, Inc
Год выпуска: 2001
Страна: США
Жанр: мультфильм, фэнтези, комедия, приключения
Продолжительность: 01:32:08
Перевод: Профессиональный (дублированный)
Русские субтитры: нет
Режиссер на русском: Пит Доктер, Дэвид Силверман, Ли Анкрич
Режиссер на английском: Pete Docter,David Silverman,Lee Unkrich
В ролях: Джон Гудмен,Билли Кристал,Мэри Гиббс,Стив Бушеми,Джеймс Коберн,Дженнифер Тилли,Боб Питерсон,
Джон Ратценбергер,Фрэнк Оз,Дэниэл Джерсон.
Роли озвучивали: Сергей Паршин,Олег Куликович,Лидия Семёнова,Евгений Дятлов,Борис Улитин.
Описание: Склизский гад в сливном бачке, мохнатый зверь, похожий на чудовище из «Аленького цветочка», гигантские мокрицы под кроватью — все они существуют на самом деле. Все, что им нужно — пугать детей, потому что из детских криков они получают электричество.Полнометражный мультфильм рассказывает о кризисах в мире монстров, их жизни.Но однажды вся мирная жизнь монстров оказывается под угрозой: в их мир попадает ребенок. А с детьми столько хлопот, что они могут довести даже монстров.
Качество: BDrip
Контейнер: MKV
Формат 3D: OverUnder / Вертикальная стереопара
Порядок ракурсов: левый ракурс первый
Видео кодек: x264
Аудио кодек: AC3
Видео:AVC /High@L5.0/ 23,976 fps / 1920х2076 / 16.2 Mbps
Аудио: Русский / AC3 / 48 KHz / 5.1 ch / 640 Kbps
Аудио: Английский / AC3 / 48 KHz / 5.1 ch / 640 Kbps
ВНИМАНИЕ ! На встроенных ТВ-плейерах работать не будет!!!
Железные плееры на которых воспроизводятся полные стереопары:Popcorn C-200 , Dune HD Smart D1 , Dune HD DUO , Dune HD Smart H1 , Dune HD Smart B1 , Dune HD Max.

MediaInfo

General
Unique ID : 189097511631575744577341161685011709649 (0x8E42DB23362C19A0824212C6367CBED1)
Complete name : D:\закачки\Monsters, Inc.Rip by SeRoGa00.mkv
Format : Matroska
Format version : Version 2
File size : 11.5 GiB
Duration : 1h 32mn
Overall bit rate : 17.8 Mbps
Encoded date : UTC 2013-02-10 14:05:16
Writing application : mkvmerge v3.4.0 ('Rapunzel') сборка от May 15 2010 09:38:20
Writing library : libebml v0.8.0 + libmatroska v0.9.0
Video
ID : 1
Format : AVC
Format/Info : Advanced Video Codec
Format profile : High@L5.0
Format settings, CABAC : Yes
Format settings, ReFrames : 4 frames
Codec ID : V_MPEG4/ISO/AVC
Duration : 1h 32mn
Bit rate : 16.2 Mbps
Width : 1 920 pixels
Height : 2 076 pixels
Display aspect ratio : 0.925
Frame rate : 23.976 fps
Color space : YUV
Chroma subsampling : 4:2:0
Bit depth : 8 bits
Scan type : Progressive
Bits/(Pixel*Frame) : 0.169
Stream size : 10.4 GiB (91%)
Title : Rip by SeRoGa00
Writing library : x264 core 128 r2216kMod 198a7ea
Encoding settings : cabac=1 / ref=4 / deblock=1:-3:-3 / analyse=0x3:0x113 / me=umh / subme=9 / psy=1 / fade_compensate=0.00 / psy_rd=1.00:0.15 / mixed_ref=1 / me_range=16 / chroma_me=1 / trellis=2 / 8x8dct=1 / cqm=0 / deadzone=21,11 / fast_pskip=1 / chroma_qp_offset=-3 / threads=6 / lookahead_threads=1 / sliced_threads=0 / nr=0 / decimate=1 / interlaced=0 / bluray_compat=0 / constrained_intra=0 / bframes=6 / b_pyramid=2 / b_adapt=2 / b_bias=0 / direct=3 / weightb=1 / open_gop=0 / weightp=2 / keyint=250 / keyint_min=23 / scenecut=40 / intra_refresh=0 / rc_lookahead=60 / rc=crf / mbtree=1 / crf=18.0000 / qcomp=0.60 / qpmin=10 / qpmax=69 / qpstep=4 / vbv_maxrate=40000 / vbv_bufsize=40000 / crf_max=0.0 / nal_hrd=none / ip_ratio=1.40 / aq=1:1.00
Language : English
Default : Yes
Forced : No
Audio #1
ID : 2
Format : AC-3
Format/Info : Audio Coding 3
Mode extension : CM (complete main)
Format settings, Endianness : Big
Codec ID : A_AC3
Duration : 1h 32mn
Bit rate mode : Constant
Bit rate : 640 Kbps
Channel(s) : 6 channels
Channel positions : Front: L C R, Side: L R, LFE
Sampling rate : 48.0 KHz
Bit depth : 16 bits
Compression mode : Lossy
Stream size : 422 MiB (4%)
Language : Russian
Default : Yes
Forced : No
Audio #2
ID : 3
Format : AC-3
Format/Info : Audio Coding 3
Mode extension : CM (complete main)
Format settings, Endianness : Big
Codec ID : A_AC3
Duration : 1h 32mn
Bit rate mode : Constant
Bit rate : 640 Kbps
Channel(s) : 6 channels
Channel positions : Front: L C R, Side: L R, LFE
Sampling rate : 48.0 KHz
Bit depth : 16 bits
Compression mode : Lossy
Stream size : 422 MiB (4%)
Language : English
Default : No
Forced : No

Скриншоты


Остальные раздачи этого фильма (3)
Благодарности релизеру (7)

Торрент:

Статус:

Размер:

Зарегистрирован   [ 2013-02-11 14:57 ]

проверено

11.47 GB

 
 Мнение о фильме (10)





marik05
Спасибо огромное за релиз! Такие шедевры стараемся поддержать!
Со своей стороны тоже делаем, что можем... :-)
 

Puhov, ахах, мне и при большей отдаче не приходило в голову писануться скриншотом ;)
 

tnrprog, дело не в "писануться" )) А в "побудить народ на здоровую соревновательность". Кто потянет конечно 8-))
Да и цифра красивая, совсем не специально получилась...))
 

спасибо!мультик красивый!
 

классный мульт.
 

Мультфильм классный 3D в норме.
 

интересный мульт спасибо
 

мне интересно они как переводили кадр за кадром с помощью карты глубины или как то по новой отрендерили 2 ракурс?
 

или как то по новой отрендерили 2 ракурс?
Все полигоны мульта сохраняются, то есть в любой момент его можно отрендерить по новой. В данном случае достаточно добавить вторую виртуальную камеру.
 

Мульт классный, перевод правда меньше понравился чем когда смотрел давным давно. П.С. этот мульт можно найти на др торрент ресурсах, где он еще не закрыт для раздачи)